˂
˃
 

UmarShoh ®

Jins:
Yigit
Staj:
1 yil 9 oy
Xabarlar:
405
Taqiq:

--Muzlik Davri. Jamlanmasi | Ледниковый Период. Коллекция | Ice Age. Collection
2002, 2006, 2009, 2012, 2016
01:21:07 | 01:31:07 | 01:34:03 | 01:27:45 | 01:34:32 --

Muzlik Davri | Ледниковый Период | Ice Age

-Muzlik Davri | Ледниковый Период | Ice Age- -Chiqqan yili: 2002
Davlat: AQSH
Janr: Multfilm, Oilaviy, Komediya
Davomiyligi: 01:21:07
Tarjima: Professional (dublyaj qilingan)
Tarjima 2: Professional (dublyaj qilingan)
-Rejissyorlar: Carlos Saldanha, Chris Wedge-Rollarni ovozlashtirganlar: Rey Romano, Djon Lеguizamo, Kuin Latifa, Denis Liri, Djosh Pеk, Pitеr Dinkleydj, Kеkе Palmеr, Djеnnifеr Lopеz, Nik Frost, Aziz Ansari.
-Tavsif: 20 ming yil avval yer yuzida muzlik davri boshlanadi. Hamma xayvonlar ko'cha boshlashadi.
Lekin Meni ismli bir mamont bunga ishonmay boshqa xayvonlardan ajrab boshqa yo'nalish bo'yicha harakatlanadi. Bu vaqtda yalqovlar oilasi ham o'z oiladoshi bo'lgan Sid ismli yalqovni bir o'zini tashlab ketishadi. Taqdirning taqozosi bilan mamont Meni va Sid axl do'st bo'lishadi. Kunlarning birida odamlarning oilasida...
Videoning sifati: BDRip 720p HEVC 10 Bit
Video format: MKV
Video: HEVC, 1280x696, 3000kbps, 60 fps
Audio: AC3, 48000Hz, 640 kbps, 6ch |Ruscha
Audio 2: AC3, 48000Hz, 640 Kbps, 6ch |Inglizcha
Audio 3: MP3, 44100Hz, 192 Kbps, 2ch |O'zbekcha (Yoshlar)
Subtitrlar: Inglizcha, Ruscha.

Media Info


General
Unique ID : 170498101848098436796972288530621329241 (0x8044BD6F65CE90981C0223176C4EEF59)
Complete name : D:\Media\Multfilmlar\012) Ice Age [ 2002 BDRip 720p HEVC 60FPS ] O'zbek tilida.mkv
Format : Matroska
Format version : Version 4 / Version 2
File size : 2.54 GiB
Duration : 1 h 21 min
Overall bit rate : 4 474 kb/s
Movie name : Ice Age (2002) by Tiberiumsun69
Encoded date : UTC 2018-05-07 11:02:20
Writing application : mkvmerge v22.0.0 ('At The End Of The World') 64-bit
Writing library : libebml v1.3.5 + libmatroska v1.4.8
Cover : Yes
Attachments : Cover.jpg
Video
ID : 1
Format : HEVC
Format/Info : High Efficiency Video Coding
Format profile : Main 10@L4@Main
Codec ID : V_MPEGH/ISO/HEVC
Duration : 1 h 21 min
Bit rate : 3 000 kb/s
Width : 1 280 pixels
Height : 696 pixels
Display aspect ratio : 1.85:1
Frame rate mode : Constant
Frame rate : 60.000 FPS
Color space : YUV
Chroma subsampling : 4:2:0
Bit depth : 10 bits
Bits/(Pixel*Frame) : 0.056
Stream size : 1.70 GiB (67%)
Default : Yes
Forced : No
Audio #1
ID : 2
Format : AC-3
Format/Info : Audio Coding 3
Codec ID : A_AC3
Duration : 1 h 21 min
Bit rate mode : Constant
Bit rate : 640 kb/s
Channel(s) : 6 channels
Channel positions : Front: L C R, Side: L R, LFE
Sampling rate : 48.0 kHz
Frame rate : 31.250 FPS (1536 SPF)
Bit depth : 16 bits
Compression mode : Lossy
Stream size : 371 MiB (14%)
Title : Dub
Language : Russian
Service kind : Complete Main
Default : No
Forced : No
Audio #2
ID : 3
Format : AC-3
Format/Info : Audio Coding 3
Codec ID : A_AC3
Duration : 1 h 21 min
Bit rate mode : Constant
Bit rate : 640 kb/s
Channel(s) : 6 channels
Channel positions : Front: L C R, Side: L R, LFE
Sampling rate : 48.0 kHz
Frame rate : 31.250 FPS (1536 SPF)
Bit depth : 16 bits
Compression mode : Lossy
Stream size : 371 MiB (14%)
Title : Original
Language : English
Service kind : Complete Main
Default : No
Forced : No
Audio #3
ID : 6
Format : MPEG Audio
Format version : Version 1
Format profile : Layer 3
Format settings : Joint stereo / MS Stereo
Codec ID : A_MPEG/L3
Codec ID/Hint : MP3
Duration : 1 h 21 min
Bit rate mode : Constant
Bit rate : 192 kb/s
Channel(s) : 2 channels
Sampling rate : 44.1 kHz
Frame rate : 38.281 FPS (1152 SPF)
Compression mode : Lossy
Stream size : 111 MiB (4%)
Title : Yoshlar (UmarShoh_FL)
Writing library : LAME3.99.5
Language : Uzbek
Default : Yes
Forced : No
Text #1
ID : 4
Format : UTF-8
Codec ID : S_TEXT/UTF8
Codec ID/Info : UTF-8 Plain Text
Duration : 1 h 9 min
Bit rate : 67 b/s
Count of elements : 535
Stream size : 34.4 KiB (0%)
Title : Full
Language : Russian
Default : No
Forced : No
Text #2
ID : 5
Format : UTF-8
Codec ID : S_TEXT/UTF8
Codec ID/Info : UTF-8 Plain Text
Duration : 1 h 9 min
Bit rate : 42 b/s
Count of elements : 575
Stream size : 21.9 KiB (0%)
Title : Full
Language : English
Default : No
Forced : No
Menu
00:00:00.000 : en:00:00:00.000
00:03:52.441 : en:00:03:52.441
00:05:21.363 : en:00:05:21.363
00:09:31.488 : en:00:09:31.488
00:14:41.672 : en:00:14:41.672
00:17:47.775 : en:00:17:47.775
00:25:23.689 : en:00:25:23.689
00:27:41.326 : en:00:27:41.326
00:31:26.802 : en:00:31:26.802
00:34:59.931 : en:00:34:59.931
00:42:27.336 : en:00:42:27.336
00:48:15.476 : en:00:48:15.476
00:51:49.982 : en:00:51:49.982
00:53:00.052 : en:00:53:00.052
00:56:03.443 : en:00:56:03.443
00:57:05.881 : en:00:57:05.881
01:00:22.118 : en:01:00:22.118
01:08:13.756 : en:01:08:13.756
01:13:31.824 : en:01:13:31.824
01:15:26.480 : en:01:15:26.480

Muzlik Davri 2 : Jazirama Issiq | Ледниковый Период 2 : Глобальное Потепление | Ice Age: The Meltdown

-Muzlik Davri 2 : Jazirama Issiq | Ледниковый Период 2 : Глобальное Потепление - -Chiqqan yili: 2006
Davlat: AQSH
Janr: Multfilm, Oilaviy, Komediya
Davomiyligi: 01:31:07
Tarjima: Professional (dublyaj qilingan)
Tarjima 2: Professional (dublyaj qilingan)
-Rejissyorlar: Carlos Saldanha, Chris Wedge-Rollarni ovozlashtirganlar: Rey Romano, Jon Leguizamo, Denis Liri, Shon Uilyam Skott, Josh Pek, Kuin Latifa, Uil Arnet, Jey Leno, Kris Uedj, Piter Ekerman.
-Tavsif: Yo'lbars Diyegо, mamont Manfred, kemiruvchi Skret va dangasa Sid jazirama issiq davriga yetib keladilar. Bir tarafdan bu yaxshi - muz cho'l iliq vanna qabul qilish mumkin bo'lgan akvaparga aylanadi. Ikinchi tarafdan esa - uncha yaxshi emas: katta oqim to'g'ridan - to'g'ri ularning vodiysiga qarab keladi.... Videoning sifati: BDRip 720p HEVC 10 Bit
Video format: MKV
Video: HEVC, 1280x688, 2975kbps, 60 fps
Audio: AC3, 48000Hz, 640 kbps, 6ch |Ruscha
Audio 2: AC3, 48000Hz, 640 Kbps, 6ch |Inglizcha
Audio 3: MP3, 44100Hz, 192 Kbps, 2ch |O'zbekcha (Yoshlar)
Subtitrlar: Inglizcha, Ruscha.

Media Info


General
Unique ID : 311626226430454813257500264742668072322 (0xEA710731291C1D8454E54B4ACBE5F582)
Complete name : D:\Media\Multfilmlar\013) Ice Age The Meltdown [ 2006 BDRip 720p HEVC 60FPS ] O'zbek tilida.mkv
Format : Matroska
Format version : Version 4 / Version 2
File size : 2.82 GiB
Duration : 1 h 31 min
Overall bit rate : 4 431 kb/s
Movie name : Ice Age: The Meltdown (2006) by Tiberiumsun69
Encoded date : UTC 2018-05-09 05:35:22
Writing application : mkvmerge v22.0.0 ('At The End Of The World') 64-bit
Writing library : libebml v1.3.5 + libmatroska v1.4.8
Cover : Yes
Attachments : Cover.jpg
Video
ID : 1
Format : HEVC
Format/Info : High Efficiency Video Coding
Format profile : Main 10@L4@Main
Codec ID : V_MPEGH/ISO/HEVC
Duration : 1 h 30 min
Bit rate : 2 975 kb/s
Width : 1 280 pixels
Height : 688 pixels
Display aspect ratio : 1.85:1
Frame rate mode : Constant
Frame rate : 60.000 FPS
Color space : YUV
Chroma subsampling : 4:2:0
Bit depth : 10 bits
Bits/(Pixel*Frame) : 0.056
Stream size : 1.88 GiB (67%)
Default : Yes
Forced : No
Audio #1
ID : 2
Format : AC-3
Format/Info : Audio Coding 3
Codec ID : A_AC3
Duration : 1 h 30 min
Bit rate mode : Constant
Bit rate : 640 kb/s
Channel(s) : 6 channels
Channel positions : Front: L C R, Side: L R, LFE
Sampling rate : 48.0 kHz
Frame rate : 31.250 FPS (1536 SPF)
Bit depth : 16 bits
Compression mode : Lossy
Stream size : 415 MiB (14%)
Title : Dub
Language : Russian
Service kind : Complete Main
Default : No
Forced : No
Audio #2
ID : 3
Format : AC-3
Format/Info : Audio Coding 3
Codec ID : A_AC3
Duration : 1 h 31 min
Bit rate mode : Constant
Bit rate : 640 kb/s
Channel(s) : 6 channels
Channel positions : Front: L C R, Side: L R, LFE
Sampling rate : 48.0 kHz
Frame rate : 31.250 FPS (1536 SPF)
Bit depth : 16 bits
Compression mode : Lossy
Stream size : 417 MiB (14%)
Title : Original
Language : English
Service kind : Complete Main
Default : No
Forced : No
Audio #3
ID : 6
Format : MPEG Audio
Format version : Version 1
Format profile : Layer 3
Format settings : Joint stereo / MS Stereo
Codec ID : A_MPEG/L3
Codec ID/Hint : MP3
Duration : 1 h 31 min
Bit rate mode : Constant
Bit rate : 192 kb/s
Channel(s) : 2 channels
Sampling rate : 44.1 kHz
Frame rate : 38.281 FPS (1152 SPF)
Compression mode : Lossy
Stream size : 125 MiB (4%)
Title : Yoshlar (UmarShoh_FL)
Writing library : LAME3.99.5
Language : Uzbek
Default : Yes
Forced : No
Text #1
ID : 4
Format : UTF-8
Codec ID : S_TEXT/UTF8
Codec ID/Info : UTF-8 Plain Text
Duration : 1 h 20 min
Bit rate : 72 b/s
Count of elements : 660
Stream size : 42.3 KiB (0%)
Title : Full
Language : Russian
Default : No
Forced : No
Text #2
ID : 5
Format : UTF-8
Codec ID : S_TEXT/UTF8
Codec ID/Info : UTF-8 Plain Text
Duration : 1 h 20 min
Bit rate : 43 b/s
Count of elements : 703
Stream size : 25.5 KiB (0%)
Title : Full
Language : English
Default : No
Forced : No
Menu
00:00:00.000 : en:00:00:00.000
00:06:19.296 : en:00:06:19.296
00:07:42.671 : en:00:07:42.671
00:10:45.395 : en:00:10:45.395
00:15:23.256 : en:00:15:23.256
00:17:42.937 : en:00:17:42.937
00:19:23.162 : en:00:19:23.162
00:21:40.925 : en:00:21:40.925
00:23:14.268 : en:00:23:14.268
00:27:11.839 : en:00:27:11.839
00:30:32.247 : en:00:30:32.247
00:35:44.809 : en:00:35:44.809
00:38:48.660 : en:00:38:48.660
00:42:26.753 : en:00:42:26.753
00:45:49.705 : en:00:45:49.705
00:47:44.653 : en:00:47:44.653
00:50:17.681 : en:00:50:17.681
00:54:04.491 : en:00:54:04.491
00:58:59.244 : en:00:58:59.244
01:01:06.788 : en:01:01:06.788
01:05:11.116 : en:01:05:11.116
01:10:38.025 : en:01:10:38.025
01:20:55.476 : en:01:20:55.476
01:23:34.635 : en:01:23:34.635

Muzlik Davri 3 : Dinozavrlar Asri | Ледниковый Период 3 : Эра Динозавров | Ice Age: Dawn of the Dinosaurs

-Muzlik Davri 3 : Dinozavrlar Asri | Ледниковый Период 3 : Эра Динозавров - -Chiqqan yili: 2009
Davlat: AQSH
Janr: Multfilm, Oilaviy, Komediya
Davomiyligi: 01:34:03
Tarjima: Professional (dublyaj qilingan)
Tarjima 2: Professional (dublyaj qilingan)
-Rejissyorlar: Carlos Saldanha, Chris Wedge-Rollarni ovozlashtirganlar: Rey Romano, Jon Leguizamo, Saymon Peg, Shon Uilyam Skott, Kuin Latifa,Josh Pek, Josh Pek, Denis Liri, Kris Uedj, Yunis Cho, Karen Disher.
-Tavsif: «Muzlik Davri: Dinozavrlar asri»ga bosh qahramonlarning hayotida ko'p o'zgarishlar yuz bergan.
Mamont Manfred va Elli farzand kutishmoqda; yo'lbars Diyego esa do'stlari qurshovida «yumshoq dil» ekanligi haqidagi o'ylar bilan band; dangasa Sidning fikr - hayoli o'z qabilasini yaratishda, shu istakda u dinazavrning bir nechta tuhumini o'g'irlaydi...
-Videoning sifati: BDRip 720p HEVC 10 Bit
Video format: MKV
Video: HEVC, 1280x688, 2981kbps, 60 fps
Audio: AC3, 48000Hz, 640 kbps, 6ch |Ruscha
Audio 2: AC3, 48000Hz, 640 Kbps, 6ch |Inglizcha
Audio 3: MP3, 44100Hz, 256 Kbps, 2ch |O'zbekcha (Yoshlar)
Subtitrlar: Inglizcha, Ruscha.

Media Info


General
Unique ID : 89886570093268999222980098519822519399 (0x439F8610D0D8E8A1CA8FCCFF76004C67)
Complete name : D:\Media\Multfilmlar\014) Ice Age Dawn of The Dinosaurs [ 2009 BDRip 720p HEVC 60FPS ] O'zbek tilida.mkv
Format : Matroska
Format version : Version 4 / Version 2
File size : 2.97 GiB
Duration : 1 h 34 min
Overall bit rate : 4 522 kb/s
Movie name : Ice Age: Dawn of the Dinosaurs (2009) by Tiberiumsun69
Encoded date : UTC 2018-05-07 07:58:06
Writing application : mkvmerge v22.0.0 ('At The End Of The World') 64-bit
Writing library : libebml v1.3.5 + libmatroska v1.4.8
Cover : Yes
Attachments : Cover.jpg
Video
ID : 1
Format : HEVC
Format/Info : High Efficiency Video Coding
Format profile : Main 10@L4@Main
Codec ID : V_MPEGH/ISO/HEVC
Duration : 1 h 34 min
Bit rate : 2 981 kb/s
Width : 1 280 pixels
Height : 688 pixels
Display aspect ratio : 1.85:1
Frame rate mode : Constant
Frame rate : 60.000 FPS
Color space : YUV
Chroma subsampling : 4:2:0
Bit depth : 10 bits
Bits/(Pixel*Frame) : 0.056
Stream size : 1.96 GiB (66%)
Default : Yes
Forced : No
Audio #1
ID : 2
Format : AC-3
Format/Info : Audio Coding 3
Codec ID : A_AC3
Duration : 1 h 34 min
Bit rate mode : Constant
Bit rate : 640 kb/s
Channel(s) : 6 channels
Channel positions : Front: L C R, Side: L R, LFE
Sampling rate : 48.0 kHz
Frame rate : 31.250 FPS (1536 SPF)
Bit depth : 16 bits
Compression mode : Lossy
Stream size : 431 MiB (14%)
Title : Dub
Language : Russian
Service kind : Complete Main
Default : No
Forced : No
Audio #2
ID : 3
Format : AC-3
Format/Info : Audio Coding 3
Codec ID : A_AC3
Duration : 1 h 34 min
Bit rate mode : Constant
Bit rate : 640 kb/s
Channel(s) : 6 channels
Channel positions : Front: L C R, Side: L R, LFE
Sampling rate : 48.0 kHz
Frame rate : 31.250 FPS (1536 SPF)
Bit depth : 16 bits
Compression mode : Lossy
Stream size : 431 MiB (14%)
Title : Original
Language : English
Service kind : Complete Main
Default : No
Forced : No
Audio #3
ID : 6
Format : MPEG Audio
Format version : Version 1
Format profile : Layer 3
Format settings : Joint stereo
Codec ID : A_MPEG/L3
Codec ID/Hint : MP3
Duration : 1 h 34 min
Bit rate mode : Constant
Bit rate : 256 kb/s
Channel(s) : 2 channels
Sampling rate : 44.1 kHz
Frame rate : 38.281 FPS (1152 SPF)
Compression mode : Lossy
Stream size : 172 MiB (6%)
Title : Bolajon (UmarShoh_Prod)
Writing library : LAME3.99.5
Language : Uzbek
Default : Yes
Forced : No
Text #1
ID : 4
Format : UTF-8
Codec ID : S_TEXT/UTF8
Codec ID/Info : UTF-8 Plain Text
Duration : 1 h 23 min
Bit rate : 60 b/s
Count of elements : 816
Stream size : 37.0 KiB (0%)
Title : Full
Language : Russian
Default : No
Forced : No
Text #2
ID : 5
Format : UTF-8
Codec ID : S_TEXT/UTF8
Codec ID/Info : UTF-8 Plain Text
Duration : 1 h 20 min
Bit rate : 43 b/s
Count of elements : 627
Stream size : 25.7 KiB (0%)
Title : Full
Language : English
Default : No
Forced : No
Menu
00:00:00.000 : en:00:00:00.000
00:03:10.816 : en:00:03:10.816
00:10:38.847 : en:00:10:38.847
00:16:05.631 : en:00:16:05.631
00:20:00.449 : en:00:20:00.449
00:24:07.655 : en:00:24:07.655
00:27:29.648 : en:00:27:29.648
00:31:47.572 : en:00:31:47.572
00:36:10.668 : en:00:36:10.668
00:41:11.594 : en:00:41:11.594
00:48:29.073 : en:00:48:29.073
00:50:46.335 : en:00:50:46.335
00:57:03.003 : en:00:57:03.003
00:58:06.149 : en:00:58:06.149
01:03:11.287 : en:01:03:11.287
01:08:05.039 : en:01:08:05.039
01:11:37.043 : en:01:11:37.043
01:16:00.306 : en:01:16:00.306
01:21:05.069 : en:01:21:05.069
01:26:50.122 : en:01:26:50.122

Muzlik Davri 4 : Ayro Qit'alar | Ледниковый Период 4 : Континентальный Дрейф | Ice Age: Continental Drift

-Muzlik Davri 4 : Ayro Qit'alar | Ледниковый Период 4 : Континентальный Дрейф - -Chiqqan yili: 2012
Davlat: AQSH
Janr: Multfilm, Oilaviy, Komediya
Davomiyligi: 01:27:45
Tarjima: Professional (dublyaj qilingan)
Tarjima 2: Professional (dublyaj qilingan)
-Rejissyorlar: Carlos Saldanha, Chris Wedge-Rollarni ovozlashtirganlar: Rey Romano, Djon Leguizamo, Kuin Latifa, Denis Liri, Djosh Pek, Piter Dinkleydj, Keke Palmer, Djennifer Lopez, Nik Frost, Aziz Ansari.
-Tavsif: Yer tagida bo'lib o'tgan sarguzashtdan keyin 7 yil o'tdi. Qit'alarning qo'zg'alishi yuz berdi. Multfilmning asosiy qahramonlari, to'dadan ajralganlar, aysbergdan kema sifatida foydalanishga majbur bo'lishadi... -Videoning sifati: BDRip 720p HEVC 10 Bit
Video format: MKV
Video: HEVC, 1280x536, 2489kbps, 60 fps
Audio: AC3, 48000Hz, 640 kbps, 6ch |Ruscha
Audio 2: AC3, 48000Hz, 640 Kbps, 6ch |Inglizcha
Audio 3: MP3, 44100Hz, 160 Kbps, 2ch |O'zbekcha (Yoshlar)
Subtitrlar: Inglizcha, Ruscha.

Media Info


General
Unique ID : 278192187171499836776540125851884730304 (0xD149DDC98F73C32B70301D34B43837C0)
Complete name : D:\Media\Multfilmlar\015) Ice Age Continental Drift [ 2012 BDRip 720p HEVC 60FPS ] O'zbek tilida.mkv
Format : Matroska
Format version : Version 4 / Version 2
File size : 2.41 GiB
Duration : 1 h 27 min
Overall bit rate : 3 934 kb/s
Movie name : Ice Age: Continental Drift (2012) by Tiberiumsun69
Encoded date : UTC 2018-05-07 07:31:01
Writing application : mkvmerge v22.0.0 ('At The End Of The World') 64-bit
Writing library : libebml v1.3.5 + libmatroska v1.4.8
Cover : Yes
Attachments : Cover.jpg
Video
ID : 1
Format : HEVC
Format/Info : High Efficiency Video Coding
Format profile : Main 10@L4@Main
Codec ID : V_MPEGH/ISO/HEVC
Duration : 1 h 27 min
Bit rate : 2 489 kb/s
Width : 1 280 pixels
Height : 536 pixels
Display aspect ratio : 2.40:1
Frame rate mode : Constant
Frame rate : 60.000 FPS
Color space : YUV
Chroma subsampling : 4:2:0
Bit depth : 10 bits
Bits/(Pixel*Frame) : 0.060
Stream size : 1.53 GiB (63%)
Title : Orginal
Language : English
Default : Yes
Forced : No
Audio #1
ID : 2
Format : AC-3
Format/Info : Audio Coding 3
Codec ID : A_AC3
Duration : 1 h 27 min
Bit rate mode : Constant
Bit rate : 640 kb/s
Channel(s) : 6 channels
Channel positions : Front: L C R, Side: L R, LFE
Sampling rate : 48.0 kHz
Frame rate : 31.250 FPS (1536 SPF)
Bit depth : 16 bits
Compression mode : Lossy
Stream size : 402 MiB (16%)
Title : Dub
Language : Russian
Service kind : Complete Main
Default : No
Forced : No
Audio #2
ID : 3
Format : AC-3
Format/Info : Audio Coding 3
Codec ID : A_AC3
Duration : 1 h 27 min
Bit rate mode : Constant
Bit rate : 640 kb/s
Channel(s) : 6 channels
Channel positions : Front: L C R, Side: L R, LFE
Sampling rate : 48.0 kHz
Frame rate : 31.250 FPS (1536 SPF)
Bit depth : 16 bits
Compression mode : Lossy
Stream size : 402 MiB (16%)
Title : Original
Language : English
Service kind : Complete Main
Default : No
Forced : No
Audio #3
ID : 6
Format : MPEG Audio
Format version : Version 1
Format profile : Layer 3
Format settings : Joint stereo / MS Stereo
Codec ID : A_MPEG/L3
Codec ID/Hint : MP3
Duration : 1 h 27 min
Bit rate mode : Constant
Bit rate : 160 kb/s
Channel(s) : 2 channels
Sampling rate : 44.1 kHz
Frame rate : 38.281 FPS (1152 SPF)
Compression mode : Lossy
Stream size : 100 MiB (4%)
Title : Yoshlar (UmarShoh_FL)
Writing library : LAME3.99.5
Language : Uzbek
Default : Yes
Forced : No
Text #1
ID : 4
Format : UTF-8
Codec ID : S_TEXT/UTF8
Codec ID/Info : UTF-8 Plain Text
Duration : 1 h 26 min
Bit rate : 71 b/s
Count of elements : 1149
Stream size : 44.9 KiB (0%)
Title : Full
Language : Russian
Default : No
Forced : No
Text #2
ID : 5
Format : UTF-8
Codec ID : S_TEXT/UTF8
Codec ID/Info : UTF-8 Plain Text
Duration : 1 h 19 min
Bit rate : 54 b/s
Count of elements : 1144
Stream size : 31.4 KiB (0%)
Title : Full
Language : English
Default : No
Forced : No
Menu
00:00:00.000 : en:Chapter 01
00:03:24.037 : en:Chapter 02
00:05:07.223 : en:Chapter 03
00:09:33.406 : en:Chapter 04
00:13:08.704 : en:Chapter 05
00:15:55.329 : en:Chapter 06
00:18:22.643 : en:Chapter 07
00:22:23.717 : en:Chapter 08
00:25:56.555 : en:Chapter 09
00:29:17.964 : en:Chapter 10
00:32:57.600 : en:Chapter 11
00:36:14.380 : en:Chapter 12
00:38:41.652 : en:Chapter 13
00:43:48.709 : en:Chapter 14
00:45:29.643 : en:Chapter 15
00:49:38.976 : en:Chapter 16
00:53:49.476 : en:Chapter 17
00:57:22.856 : en:Chapter 18
01:02:31.038 : en:Chapter 19
01:08:08.334 : en:Chapter 20
01:11:10.474 : en:Chapter 21
01:13:14.640 : en:Chapter 22
01:16:53.400 : en:Chapter 23
01:19:23.633 : en:Chapter 24

Muzlik Davri 5 : Muqarrar To'qnashuv | Ледниковый Период 5 : Столкновение Неизбежно | Ice Age: Collision Course

-Muzlik Davri 5 : Muqarrar To'qnashuv | Ледниковый Период 5 : Столкновение Неизбежно - -Chiqqan yili: 2016
Davlat: AQSH
Janr: Multfilm, Oilaviy, Komediya
Davomiyligi: 01:34:32
Tarjima: Professional (dublyaj qilingan)
Tarjima 2: Professional (dublyaj qilingan)
Tarjima 3: Professional (dublyaj qilingan)
-Rejissyorlar: Carlos Saldanha, Chris Wedge-Rollarni ovozlashtirganlar: Rey Romano, Djon Leguizamo, Kuin Latifa, Denis Liri, Djosh Pek, Piter Dinkleydj, Keke Palmer, Djennifer Lopez, Nik Frost, Aziz Ansari.
-Tavsif: Yer yuziga ulkan asteroid qulay boshlaydi. Bundan xabar topgan jonivorlar qulayotgan asteroidni qanday qilib boshqa yo'nalishga burub yuborish haqida bosh qotirayotganlarida ularning do'sti bo'lmish Bak ularga yordam beradi va ular yer yuzini saqlab qolay deyishayotgan bir vaqtda kutilmaganda yer ostidan.... -Videoning sifati: BDRip 720p HEVC 10 Bit
Video format: MKV
Video: HEVC, 1280x536, 2500kbps, 60 fps
Audio: AC3, 48000Hz, 448 kbps, 6ch |Ruscha
Audio 2: AC3, 48000Hz, 640 Kbps, 6ch |Inglizcha
Audio 3: MP3, 44100Hz, 256 Kbps, 2ch |O'zbekcha (My5)
Audio 4: AAC, 48000Hz, 84.5 Kbps, 2ch | Arabcha
Subtitrlar: Inglizcha, Ruscha, Arabcha.

Media Info


General
Unique ID : 3787418962282309198884172219031922606 (0x2D96E2C043FA208830B1CC9B422A7AE)
Complete name : D:\Media\Multfilmlar\016) Ice Age Collision Course [ 2016 BDRip 720p HEVC 60FPS ] O'zbek tilida .mkv
Format : Matroska
Format version : Version 4 / Version 2
File size : 2.60 GiB
Duration : 1 h 34 min
Overall bit rate : 3 943 kb/s
Movie name : Ice Age: Collision Course (2016) by Tiberiumsun69
Encoded date : UTC 2018-05-07 07:47:49
Writing application : mkvmerge v22.0.0 ('At The End Of The World') 64-bit
Writing library : libebml v1.3.5 + libmatroska v1.4.8
Cover : Yes
Attachments : Cover.jpg
Video
ID : 1
Format : HEVC
Format/Info : High Efficiency Video Coding
Format profile : Main 10@L4@Main
Codec ID : V_MPEGH/ISO/HEVC
Duration : 1 h 34 min
Bit rate : 2 501 kb/s
Width : 1 280 pixels
Height : 536 pixels
Display aspect ratio : 2.40:1
Frame rate mode : Constant
Frame rate : 60.000 FPS
Color space : YUV
Chroma subsampling : 4:2:0
Bit depth : 10 bits
Bits/(Pixel*Frame) : 0.061
Stream size : 1.65 GiB (63%)
Default : Yes
Forced : No
Audio #1
ID : 2
Format : AC-3
Format/Info : Audio Coding 3
Codec ID : A_AC3
Duration : 1 h 34 min
Bit rate mode : Constant
Bit rate : 448 kb/s
Channel(s) : 6 channels
Channel positions : Front: L C R, Side: L R, LFE
Sampling rate : 48.0 kHz
Frame rate : 31.250 FPS (1536 SPF)
Bit depth : 16 bits
Compression mode : Lossy
Stream size : 303 MiB (11%)
Title : Dub
Language : Russian
Service kind : Complete Main
Default : No
Forced : No
Audio #2
ID : 3
Format : AC-3
Format/Info : Audio Coding 3
Codec ID : A_AC3
Duration : 1 h 34 min
Bit rate mode : Constant
Bit rate : 640 kb/s
Channel(s) : 6 channels
Channel positions : Front: L C R, Side: L R, LFE
Sampling rate : 48.0 kHz
Frame rate : 31.250 FPS (1536 SPF)
Bit depth : 16 bits
Compression mode : Lossy
Stream size : 432 MiB (16%)
Title : Original
Language : English
Service kind : Complete Main
Default : No
Forced : No
Audio #3
ID : 7
Format : MPEG Audio
Format version : Version 1
Format profile : Layer 3
Format settings : Joint stereo
Codec ID : A_MPEG/L3
Codec ID/Hint : MP3
Duration : 1 h 34 min
Bit rate mode : Constant
Bit rate : 256 kb/s
Channel(s) : 2 channels
Sampling rate : 44.1 kHz
Frame rate : 38.281 FPS (1152 SPF)
Compression mode : Lossy
Stream size : 173 MiB (6%)
Title : My5 (UmarShoh_Prod)
Writing library : LAME3.99.5
Language : Uzbek
Default : Yes
Forced : No
Audio #4
ID : 8
Format : AAC
Format/Info : Advanced Audio Codec
Format profile : LC
Codec ID : A_AAC-2
Duration : 1 h 34 min
Bit rate : 84.5 kb/s
Channel(s) : 2 channels
Channel positions : Front: L R
Sampling rate : 48.0 kHz
Frame rate : 46.875 FPS (1024 SPF)
Compression mode : Lossy
Delay relative to video : 9 ms
Stream size : 57.1 MiB (2%)
Language : Arabic
Default : No
Forced : No
Text #1
ID : 4
Format : UTF-8
Codec ID : S_TEXT/UTF8
Codec ID/Info : UTF-8 Plain Text
Duration : 24 min 51 s
Bit rate : 0 b/s
Count of elements : 2
Stream size : 109 Bytes (0%)
Title : Forced
Language : Russian
Default : Yes
Forced : No
Text #2
ID : 5
Format : UTF-8
Codec ID : S_TEXT/UTF8
Codec ID/Info : UTF-8 Plain Text
Duration : 1 h 23 min
Bit rate : 99 b/s
Count of elements : 1221
Stream size : 61.1 KiB (0%)
Title : Full
Language : Russian
Default : No
Forced : No
Text #3
ID : 6
Format : UTF-8
Codec ID : S_TEXT/UTF8
Codec ID/Info : UTF-8 Plain Text
Duration : 1 h 23 min
Bit rate : 60 b/s
Count of elements : 1221
Stream size : 36.9 KiB (0%)
Title : Full
Language : English
Default : No
Forced : No
Text #4
ID : 9
Format : PGS
Muxing mode : zlib
Codec ID : S_HDMV/PGS
Codec ID/Info : Picture based subtitle format used on BDs/HD-DVDs
Duration : 1 h 34 min
Bit rate : 17.7 kb/s
Count of elements : 2450
Stream size : 11.9 MiB (0%)
Language : Arabic
Default : No
Forced : No
Menu
00:00:00.000 : en:00:00:00.000
00:03:09.106 : en:00:03:09.106
00:05:24.366 : en:00:05:24.366
00:09:06.087 : en:00:09:06.087
00:13:22.301 : en:00:13:22.301
00:18:05.751 : en:00:18:05.751
00:20:50.583 : en:00:20:50.583
00:23:10.306 : en:00:23:10.306
00:27:29.898 : en:00:27:29.898
00:30:15.981 : en:00:30:15.981
00:32:54.347 : en:00:32:54.347
00:36:13.588 : en:00:36:13.588
00:39:33.454 : en:00:39:33.454
00:42:58.701 : en:00:42:58.701
00:47:35.019 : en:00:47:35.019
00:51:11.735 : en:00:51:11.735
00:55:50.764 : en:00:55:50.764
01:01:09.457 : en:01:01:09.457
01:05:06.402 : en:01:05:06.402
01:09:39.300 : en:01:09:39.300
01:14:36.889 : en:01:14:36.889
01:17:41.532 : en:01:17:41.532
01:21:43.065 : en:01:21:43.065
01:24:46.498 : en:01:24:46.498
.torrent yuklash

Yuqori tezlikda va bepul ko‘chirish!

Qanday yuklab olinadi? · Torrent nima o‘zi? · Reyting va cheklovlar



So‘ngi marta tahrirlandi: UmarShoh (2019-08-13 13:33), Jami tahrirlangan 7 marta
Profil ShX

Topik Vaqtincha tarqatmalar forumidan HEVC Multfilmlar ga ko'chirildi
UmarShoh

Mavzu yaratish 11-May-2018 11:04 (9 daqiqa o‘tgach)

N.U.R.I.K.B.E.K

Jins:
Yigit
Staj:
2 yil 1 oy
Xabarlar:
565

Qayerdan: Jizzax. Paxtakor

Taqiq:

Mavzu yaratish 11-May-2018 11:39 (44 daqiqa o‘tgach)

Iqitibos

Profil ShX

Gr@nd

Jins:
Yigit
Staj:
2 yil 2 oy
Xabarlar:
171

Qayerdan: Jizzax Forish

Taqiq:

UmarShoh, Qoyil Ishimgizda rivoj Tarqatishda doyim bo'lasizmi KO"CHIRIP olay

Mavzu yaratish 11-May-2018 19:28 (7 soat o‘tgach)

Iqitibos

Profil ShX

UmarShoh ®

Jins:
Yigit
Staj:
1 yil 9 oy
Xabarlar:
405
Taqiq:

Gr@nd, bs aa

Mavzu yaratish 11-May-2018 22:25 (2 soat 56 daqiqa o‘tgach)

Iqitibos

Profil ShX

UmarShoh ®

Jins:
Yigit
Staj:
1 yil 9 oy
Xabarlar:
405
Taqiq:

Gr@nd, Tarqatishga yordam berib yuborasizda oka ag

Mavzu yaratish 11-May-2018 22:27 (1 daqiqa o‘tgach)

Iqitibos

Profil ShX

God of War

Jins:
Ko‘rsatilmagan
Staj:
1 yil 7 oy
Xabarlar:
8
Taqiq:

UmarShoh, Oformleniyaga gap yo`q +++++ , mana bu posterni qo`ysayiz yanada chiroyliroq bo`ladi menimcha)

Mavzu yaratish 11-May-2018 23:23 (56 daqiqa o‘tgach)

Iqitibos

Profil ShX

UmarShoh ®

Jins:
Yigit
Staj:
1 yil 9 oy
Xabarlar:
405
Taqiq:

God of War, vaaauuuuuuvvv kotta raxmat qanday qildingiz ?

Mavzu yaratish 11-May-2018 23:26 (3 daqiqa o‘tgach)

Iqitibos

Profil ShX

God of War

Jins:
Ko‘rsatilmagan
Staj:
1 yil 7 oy
Xabarlar:
8
Taqiq:

vaaauuuuuuvvv kotta raxmat qanday qildingiz ?
Imandex cover pro orqali)


So‘ngi marta tahrirlandi: God of War (2018-05-11 23:30), Jami tahrirlangan 1 marta

Mavzu yaratish 11-May-2018 23:28 (2 daqiqa o‘tgach)

Iqitibos

Profil ShX

UmarShoh ®

Jins:
Yigit
Staj:
1 yil 9 oy
Xabarlar:
405
Taqiq:

God of War, shu dasturni reliz qilib bering iltimos !

Mavzu yaratish 11-May-2018 23:30 (1 daqiqa o‘tgach)

Iqitibos

Profil ShX

God of War

Jins:
Ko‘rsatilmagan
Staj:
1 yil 7 oy
Xabarlar:
8
Taqiq:

Gap yo`q)

Mavzu yaratish 11-May-2018 23:33 (3 daqiqa o‘tgach)

Iqitibos

Profil ShX

God of War

Jins:
Ko‘rsatilmagan
Staj:
1 yil 7 oy
Xabarlar:
8
Taqiq:

UmarShoh, siz qo`shni saytga chunchaki mani relizlarimni tomosha qilishga o`ting , chuncaki (nik _Kratos_)

Mavzu yaratish 11-May-2018 23:37 (4 daqiqa o‘tgach)

Iqitibos

Profil ShX

UmarShoh ®

Jins:
Yigit
Staj:
1 yil 9 oy
Xabarlar:
405
Taqiq:

God of War, qaysi qo'shnimiz qo'shnilar ham ko'payib qolishganda !

Mavzu yaratish 12-May-2018 06:49 (7 soat o‘tgach)

Iqitibos

Profil ShX

God of War

Jins:
Ko‘rsatilmagan
Staj:
1 yil 7 oy
Xabarlar:
8
Taqiq:

3702God of War, qaysi qo'shnimiz qo'shnilar ham ko'payib qolishganda !
Toptor)

Mavzu yaratish 12-May-2018 19:00 (12 soat o‘tgach)

Iqitibos

Profil ShX

Topik HEVC Multfilmlar forumidan Multto'plamlar ga ko‘chirildi
UmarShoh

Mavzu yaratish 09-Avg-2018 18:11 (2 oy 27 kun o‘tgach)

Xabarlarni ko‘rsatish:    

Hozirgi vaqt: 10-Dek 04:16

Vaqtlar farqi: UTC + 5



Siz mavzu yaratishingiz mumkin emas
Siz xabarlarga javob qaytarishingiz mumkin emas
Siz o‘z xabarlaringizni tahrirlashingiz mumkin emas
Siz o‘z xabarlaringizni o‘chirishingiz mumkin emas
Siz so‘rovlarda ovoz berishingiz mumkin emas
Siz xabalarga fayllarni biriktirishingiz mumkin emas
Siz fayllarni ko‘chirishingiz mumkin emas