˂
˃
Tarqatmalar statistikasi
Ko‘chiraman: [ 1 ]
Ko‘chirib bo‘ldim: [ 7 ]
 
     
 
 

UmarShoh ®

Jins:
Yigit
Staj:
1 yil 9 oy
Xabarlar:
405
Taqiq:

-Loraks | Лоракс | The Lorax- -Chiqqan yili: 2012
Davlat: AQSH
Janr: Multfilm, Oilaviy, Komediya
Davomiyligi: 01:26:19
Tarjima: Professional (dublyaj qilingan)
-Rejissyor: Kris Reno, Kayl Balda-Rollarni ovozlashtirganlar:Denni Devito, Ed Xelms, Zak Efron, Teylor Svift, Betti Uayt, Rof Riggl, Jyenni Slayt, Nazim Pedrad, Djoel Svetov, Maykl ...
-Tavsif: Yaqin kelajeda. Tugmani bosishiz bilan — va dunyo hohlaganizdakaga o'zgarardi: oynani oldida tog'lar paydo bo'lardi, hovlida okean ovozi eshtilardi. Faqat bitta muammo bo'r edi — hamma narsa plasmasdan tayorlangan. Sevib kolgan bolaga to'siq yo'q edi. Sevgan qizining istagini bajarish hohishida, ohirgi daraxt ketidan yo'lga tushadi.- Videoning sifati: Bluray 1080p
Video format: MKV
Video: AVC, 1920x1040, 2224 kbps, 23.976 fps
Audio: AAC, 44100Hz, 93.9 Kbps, 2ch |Inglizcha
Audio 2: MP3, 44100Hz, 320 Kbps, 2ch |O'zbekcha (Yoshlar)
Subtitrlar: Yo'q

Media Info

General
Unique ID : 248446345093674400789390008309690838979 (0xBAE9068B07FA7E23A105A6BAF1C6AFC3)
Complete name : D:\Media\Multfilmlar\5) The Lorax [ 2012 BDRip 1080p ] O'zbek tilida.mkv
Format : Matroska
Format version : Version 4 / Version 2
File size : 1.59 GiB
Duration : 1 h 26 min
Overall bit rate : 2 640 kb/s
Encoded date : UTC 2017-08-04 10:26:05
Writing application : mkvmerge v14.0.0 ('Flow') 32bit
Writing library : libebml v1.3.4 + libmatroska v1.4.5
Video
ID : 1
Format : AVC
Format/Info : Advanced Video Codec
Format profile : High@L4
Format settings : CABAC / 4 Ref Frames
Format settings, CABAC : Yes
Format settings, ReFrames : 4 frames
Codec ID : V_MPEG4/ISO/AVC
Duration : 1 h 26 min
Bit rate : 2 224 kb/s
Width : 1 920 pixels
Height : 1 040 pixels
Display aspect ratio : 1.85:1
Frame rate mode : Constant
Frame rate : 23.976 (24000/1001) FPS
Color space : YUV
Chroma subsampling : 4:2:0
Bit depth : 8 bits
Scan type : Progressive
Bits/(Pixel*Frame) : 0.046
Stream size : 1.34 GiB (84%)
Writing library : x264 core 125 r2200 999b753
Encoding settings : cabac=1 / ref=4 / deblock=1:0:0 / analyse=0x3:0x113 / me=umh / subme=8 / psy=1 / psy_rd=1.00:0.15 / mixed_ref=1 / me_range=16 / chroma_me=1 / trellis=1 / 8x8dct=1 / cqm=0 / deadzone=21,11 / fast_pskip=1 / chroma_qp_offset=-3 / threads=12 / lookahead_threads=2 / sliced_threads=0 / nr=0 / decimate=1 / interlaced=0 / bluray_compat=0 / constrained_intra=0 / bframes=3 / b_pyramid=2 / b_adapt=2 / b_bias=0 / direct=3 / weightb=1 / open_gop=0 / weightp=2 / keyint=240 / keyint_min=23 / scenecut=40 / intra_refresh=0 / rc_lookahead=50 / rc=2pass / mbtree=1 / bitrate=2224 / ratetol=1.0 / qcomp=0.60 / qpmin=10 / qpmax=51 / qpstep=4 / cplxblur=20.0 / qblur=0.5 / ip_ratio=1.40 / aq=1:1.00
Language : English
Default : Yes
Forced : No
Audio #1
ID : 2
Format : AAC
Format/Info : Advanced Audio Codec
Format profile : LC
Codec ID : A_AAC-2
Duration : 1 h 26 min
Bit rate : 93.9 kb/s
Channel(s) : 2 channels
Channel positions : Front: L R
Sampling rate : 44.1 kHz
Frame rate : 43.066 FPS (1024 SPF)
Compression mode : Lossy
Delay relative to video : -83 ms
Stream size : 57.9 MiB (4%)
Title : Orginal
Language : English
Default : Yes
Forced : No
Audio #2
ID : 3
Format : MPEG Audio
Format version : Version 1
Format profile : Layer 3
Format settings : Joint stereo
Codec ID : A_MPEG/L3
Codec ID/Hint : MP3
Duration : 1 h 26 min
Bit rate mode : Constant
Bit rate : 320 kb/s
Channel(s) : 2 channels
Sampling rate : 44.1 kHz
Frame rate : 38.281 FPS (1152 SPF)
Compression mode : Lossy
Delay relative to video : -83 ms
Stream size : 198 MiB (12%)
Title : Dublaj by UmarShoh
Writing library : LAME3.99.5
Language : Uzbek
Default : No
Forced : No
.torrent yuklash

Yuqori tezlikda va bepul ko‘chirish!

Qanday yuklab olinadi? · Torrent nima o‘zi? · Reyting va cheklovlar



So‘ngi marta tahrirlandi: UmarShoh (2019-08-13 08:30), Jami tahrirlangan 1 marta
Profil ShX

UmarShoh ®

Jins:
Yigit
Staj:
1 yil 9 oy
Xabarlar:
405
Taqiq:

O'zgartirishlar bo'lganligi sababli torrent fayl yangilandi!

Mavzu yaratish 23-Sen-2018 10:50 (5 oy 9 kun o‘tgach)

Iqitibos

Profil ShX

BoboMUROD

Jins:
Ko‘rsatilmagan
Staj:
2 yil 2 oy
Xabarlar:
20
Taqiq:

30 % da qotib qopmizku

Mavzu yaratish 25-Sen-2018 09:31 (1 kun 22 soat o‘tgach)

Iqitibos

Profil ShX

UmarShoh ®

Jins:
Yigit
Staj:
1 yil 9 oy
Xabarlar:
405
Taqiq:

Sekin -sekin yuradi aka !

Mavzu yaratish 25-Sen-2018 19:49 (10 soat o‘tgach)

Iqitibos

Profil ShX
Xabarlarni ko‘rsatish:    

Hozirgi vaqt: 09-Dek 20:43

Vaqtlar farqi: UTC + 5



Siz mavzu yaratishingiz mumkin emas
Siz xabarlarga javob qaytarishingiz mumkin emas
Siz o‘z xabarlaringizni tahrirlashingiz mumkin emas
Siz o‘z xabarlaringizni o‘chirishingiz mumkin emas
Siz so‘rovlarda ovoz berishingiz mumkin emas
Siz xabalarga fayllarni biriktirishingiz mumkin emas
Siz fayllarni ko‘chirishingiz mumkin emas