˂
˃
Tarqatmalar statistikasi
Ko‘chirmoqdaman: [ 3 ]
Ko‘chirib bo‘ldim: [ 2 ]
 
     
 
 

UmarShoh ®

Jins:
Yigit
Staj:
1 yil 7 oy
Xabarlar:
403
Taqiq:

-Ferdinand | Фердинанд | Ferdinand- Davlat: AQSH / 20th Century Fox Animat
Janr: Oilaviy, komediya, multfilm
Davomiyligi: 01:48:13
Chiqqan yili: 2017
Tarjima #1: Ko'p ovozli kadr ortidan [Yoshlar]
Tarjima #2: Ko'p ovozli kadr ortidan [MY5]
Subtitrlar: Inglizcha, Ruscha, Ukraincha. Rejissyor: Karlos Saldana / Carlos Saldanha Rollarda: Jon Sina, Keyt MakKinnon, Devid Tennant, Bobbi Kannavale, Entoni Anderson, Djek Gor, Djet Yurgensmeyer, Nayl Dias, Kolin X. Merfi, Karlos Saldana Tavsif: Ferdinand Ispaniyadagi eng oq-ko'ngil buqa. Katta o'lchami va behisob kuchiga qaramay, u yoshligidan boshqa buqalar bilan urishish o'rniga,
maysazorda o'tirishni afzal ko'rdi. Tasodifan, Ferdinand boshqa buqalar orasidan Madriddagi buqalar musobaqasida qatnashish uchun tanlanadi. Sifat: BDRip 1080p
Format: MKV
Video: HEVC, 1920x804, 5813kbps, 60 fps
Audio #1: DTS, 6 ch, 768kbps | Ruscha
Audio #2: AC3, 6 ch, 448kbps | Ukraincha
Audio #3: DTS, 6 ch, 1509kbps | Inglizcha
Audio #4: MP3, 48000Hz 2ch, 250kbps | O'zbek tilida (MY5)
Audio #5: MP3, 48000Hz 2ch, 128kbps | O'zbek tilida (Yoshlar)

Media Info

General
Unique ID : 151528164239291888608094308025731308376 (0x71FF434CEEBD3F494D9D69CBB8AEDB58)
Complete name : D:\Media\Multfilmlar\002) Ferdinand [ 2017 BDRip 1080p HEVC 60FPS ] O'zbek tilida.mkv
Format : Matroska
Format version : Version 4 / Version 2
File size : 6.76 GiB
Duration : 1 h 48 min
Overall bit rate : 8 938 kb/s
Movie name : Фердинанд / Ferdinand (2017)
Encoded date : UTC 2018-05-05 05:09:30
Writing application : mkvmerge v22.0.0 ('At The End Of The World') 64-bit
Writing library : libebml v1.3.5 + libmatroska v1.4.8
Cover : Yes
Attachments : Cover.jpg
Video
ID : 1
Format : HEVC
Format/Info : High Efficiency Video Coding
Format profile : Main 10@L4.1@Main
Codec ID : V_MPEGH/ISO/HEVC
Duration : 1 h 48 min
Bit rate : 5 813 kb/s
Width : 1 920 pixels
Height : 804 pixels
Display aspect ratio : 2.40:1
Frame rate mode : Constant
Frame rate : 60.000 FPS
Color space : YUV
Chroma subsampling : 4:2:0
Bit depth : 10 bits
Bits/(Pixel*Frame) : 0.063
Stream size : 4.39 GiB (65%)
Title : Ferdinand.(2017).BDRip.1080p.FullHD.60FPS.HEVC.[Cryptor]
Writing library : x265 2.6+37-1949157705ce:[Windows][GCC 6.3.0][64 bit] 10bit
Encoding settings : cpuid=1050111 / frame-threads=3 / numa-pools=8 / wpp / no-pmode / no-pme / no-psnr / no-ssim / log-level=2 / input-csp=1 / input-res=1920x804 / interlace=0 / total-frames=389556 / level-idc=0 / high-tier=1 / uhd-bd=0 / ref=4 / no-allow-non-conformance / no-repeat-headers / annexb / no-aud / no-hrd / info / hash=0 / no-temporal-layers / open-gop / min-keyint=25 / keyint=250 / gop-lookahead=0 / bframes=4 / b-adapt=2 / b-pyramid / bframe-bias=0 / rc-lookahead=40 / lookahead-slices=5 / scenecut=40 / radl=0 / no-intra-refresh / ctu=64 / min-cu-size=8 / no-rect / no-amp / max-tu-size=32 / tu-inter-depth=1 / tu-intra-depth=1 / limit-tu=0 / rdoq-level=0 / dynamic-rd=0.00 / no-ssim-rd / signhide / no-tskip / nr-intra=0 / nr-inter=0 / no-constrained-intra / strong-intra-smoothing / max-merge=2 / limit-refs=3 / no-limit-modes / me=1 / subme=7 / merange=57 / temporal-mvp / weightp / no-weightb / no-analyze-src-pics / deblock=0:0 / sao / no-sao-non-deblock / rd=3 / no-early-skip / rskip / no-fast-intra / no-tskip-fast / no-cu-lossless / no-b-intra / no-splitrd-skip / rdpenalty=0 / psy-rd=2.00 / psy-rdoq=0.00 / no-rd-refine / no-lossless / cbqpoffs=0 / crqpoffs=0 / rc=crf / crf=18.0 / qcomp=0.60 / qpstep=4 / stats-write=0 / stats-read=0 / ipratio=1.40 / pbratio=1.30 / aq-mode=1 / aq-strength=1.00 / cutree / zone-count=0 / no-strict-cbr / qg-size=32 / no-rc-grain / qpmax=69 / qpmin=0 / no-const-vbv / sar=1 / overscan=0 / videoformat=5 / range=0 / colorprim=1 / transfer=1 / colormatrix=1 / chromaloc=0 / display-window=0 / max-cll=0,0 / min-luma=0 / max-luma=1023 / log2-max-poc-lsb=8 / vui-timing-info / vui-hrd-info / slices=1 / no-opt-qp-pps / no-opt-ref-list-length-pps / no-multi-pass-opt-rps / scenecut-bias=0.05 / no-opt-cu-delta-qp / no-aq-motion / no-hdr / no-hdr-opt / no-dhdr10-opt / analysis-reuse-level=5 / scale-factor=0 / refine-intra=0 / refine-inter=0 / refine-mv=0 / no-limit-sao / ctu-info=0 / no-lowpass-dct / refine-mv-type=0 / copy-pic=1
Default : Yes
Forced : No
Color range : Limited
Color primaries : BT.709
Transfer characteristics : BT.709
Matrix coefficients : BT.709
Audio #1
ID : 2
Format : DTS
Format/Info : Digital Theater Systems
Codec ID : A_DTS
Duration : 1 h 48 min
Bit rate mode : Constant
Bit rate : 768 kb/s
Channel(s) : 6 channels
Channel positions : Front: L C R, Side: L R, LFE
Sampling rate : 48.0 kHz
Frame rate : 93.750 FPS (512 SPF)
Bit depth : 24 bits
Compression mode : Lossy
Stream size : 594 MiB (9%)
Title : | Дублированный |
Language : Russian
Default : No
Forced : No
Audio #2
ID : 3
Format : AC-3
Format/Info : Audio Coding 3
Codec ID : A_AC3
Duration : 1 h 48 min
Bit rate mode : Constant
Bit rate : 448 kb/s
Channel(s) : 6 channels
Channel positions : Front: L C R, Side: L R, LFE
Sampling rate : 48.0 kHz
Frame rate : 31.250 FPS (1536 SPF)
Bit depth : 16 bits
Compression mode : Lossy
Stream size : 347 MiB (5%)
Title : | Дублированный |
Language : Ukrainian
Service kind : Complete Main
Default : No
Forced : No
Audio #3
ID : 9
Format : DTS
Format/Info : Digital Theater Systems
Codec ID : A_DTS
Duration : 1 h 48 min
Bit rate mode : Constant
Bit rate : 1 509 kb/s
Channel(s) : 6 channels
Channel positions : Front: L C R, Side: L R, LFE
Sampling rate : 48.0 kHz
Frame rate : 93.750 FPS (512 SPF)
Bit depth : 24 bits
Compression mode : Lossy
Stream size : 1.14 GiB (17%)
Title : | Original |
Language : English
Default : No
Forced : No
Audio #4
ID : 10
Format : AAC
Format/Info : Advanced Audio Codec
Format profile : LC
Codec ID : A_AAC-2
Duration : 1 h 48 min
Bit rate : 250 kb/s
Channel(s) : 2 channels
Channel positions : Front: L R
Sampling rate : 44.1 kHz
Frame rate : 43.066 FPS (1024 SPF)
Compression mode : Lossy
Stream size : 193 MiB (3%)
Title : My5 (UmarShoh_Prod)
Language : Uzbek
Default : Yes
Forced : No
Audio #5
ID : 11
Format : MPEG Audio
Format version : Version 1
Format profile : Layer 3
Format settings : Joint stereo / MS Stereo
Codec ID : A_MPEG/L3
Codec ID/Hint : MP3
Duration : 1 h 48 min
Bit rate mode : Constant
Bit rate : 128 kb/s
Channel(s) : 2 channels
Sampling rate : 48.0 kHz
Frame rate : 41.667 FPS (1152 SPF)
Compression mode : Lossy
Stream size : 99.0 MiB (1%)
Title : Yoshlar (UmarShoh_Prod)
Writing library : LAME3.100
Encoding settings : -m j -V 4 -q 2 -lowpass 17 -b 128
Language : Uzbek
Default : No
Forced : No
Text #1
ID : 4
Format : UTF-8
Codec ID : S_TEXT/UTF8
Codec ID/Info : UTF-8 Plain Text
Duration : 1 h 46 min
Bit rate : 53 b/s
Count of elements : 1147
Stream size : 41.6 KiB (0%)
Title : Full
Language : Russian
Default : No
Forced : No
Text #2
ID : 5
Format : UTF-8
Codec ID : S_TEXT/UTF8
Codec ID/Info : UTF-8 Plain Text
Duration : 1 h 46 min
Bit rate : 70 b/s
Count of elements : 1152
Stream size : 54.8 KiB (0%)
Title : Full
Language : Ukrainian
Default : No
Forced : No
Text #3
ID : 6
Format : UTF-8
Codec ID : S_TEXT/UTF8
Codec ID/Info : UTF-8 Plain Text
Duration : 1 h 35 min
Bit rate : 45 b/s
Count of elements : 1237
Stream size : 32.1 KiB (0%)
Title : Full
Language : English
Default : No
Forced : No
Text #4
ID : 7
Format : PGS
Muxing mode : zlib
Codec ID : S_HDMV/PGS
Codec ID/Info : Picture based subtitle format used on BDs/HD-DVDs
Duration : 1 h 46 min
Bit rate : 24.7 kb/s
Count of elements : 2310
Stream size : 18.8 MiB (0%)
Title : Full
Language : Russian
Default : No
Forced : No
Text #5
ID : 8
Format : PGS
Muxing mode : zlib
Codec ID : S_HDMV/PGS
Codec ID/Info : Picture based subtitle format used on BDs/HD-DVDs
Duration : 1 h 46 min
Bit rate : 26.3 kb/s
Count of elements : 2304
Stream size : 20.1 MiB (0%)
Title : Full
Language : Ukrainian
Default : No
Forced : No
Menu
00:00:00.000 : en:Chapter 1
00:03:37.800 : en:Chapter 2
00:08:10.281 : en:Chapter 3
00:11:51.460 : en:Chapter 4
00:16:23.524 : en:Chapter 5
00:24:14.870 : en:Chapter 6
00:28:30.458 : en:Chapter 7
00:34:03.124 : en:Chapter 8
00:37:53.187 : en:Chapter 9
00:40:54.160 : en:Chapter 10
00:44:55.359 : en:Chapter 11
00:49:15.994 : en:Chapter 12
00:53:27.245 : en:Chapter 13
00:59:40.952 : en:Chapter 14
01:03:20.671 : en:Chapter 15
01:06:23.270 : en:Chapter 16
01:09:19.822 : en:Chapter 17
01:12:18.917 : en:Chapter 18
01:17:33.940 : en:Chapter 19
01:20:55.058 : en:Chapter 20
01:25:33.837 : en:Chapter 21
01:30:38.391 : en:Chapter 22
01:36:01.839 : en:Chapter 23
01:38:01.166 : en:Chapter 24
.torrent yuklash

Yuqori tezlikda va bepul ko‘chirish!

Qanday yuklab olinadi? · Torrent nima o‘zi? · Reyting va cheklovlar



So‘ngi marta tahrirlandi: UmarShoh (2018-05-05 10:40), Jami tahrirlangan 4 marta
Profil ShX

Soft-Release

Jins:
Yigit
Staj:
1 yil 7 oy
Xabarlar:
838

Qayerdan: Kattakurgan

Taqiq:

Hamma Yoqdi Ferdinant Bosib Ketti xD:

Mavzu yaratish 14-Avg-2019 21:55 (1 yil 4 oy o‘tgach)

Iqitibos

Profil ShX

UmarShoh ®

Jins:
Yigit
Staj:
1 yil 7 oy
Xabarlar:
403
Taqiq:

Soft-Release, bunisi boshqacha! ag

Mavzu yaratish 15-Avg-2019 11:52 (13 soat o‘tgach)

Iqitibos

Profil ShX
Xabarlarni ko‘rsatish:    

Hozirgi vaqt: 22-Okt 08:09

Vaqtlar farqi: UTC + 5



Siz mavzu yaratishingiz mumkin emas
Siz xabarlarga javob qaytarishingiz mumkin emas
Siz o‘z xabarlaringizni tahrirlashingiz mumkin emas
Siz o‘z xabarlaringizni o‘chirishingiz mumkin emas
Siz so‘rovlarda ovoz berishingiz mumkin emas
Siz xabalarga fayllarni biriktirishingiz mumkin emas
Siz fayllarni ko‘chirishingiz mumkin emas