˂
˃
Tarqatmalar statistikasi
Ko‘chirib bo‘ldim: [ 7 ]
 
     
 
 

Lock ®

Jins:
Yigit
Staj:
1 yil 9 oy
Xabarlar:
73

Qayerdan: Namangan

Taqiq:

Tutqich bermas qasoskorlar | Неуловимые мстители- Chiqqan yili: 1967
Davlat: SSSR
Janr: Sarguzasht
Davomiyligi: 01:13:50
Tarjima: Professional (dublyaj qilingan)
Rejissyor: Edmond Keosayan
Rollarda: Viktor Kosix, Efim Kopelyan, Vladimir Treshalov, Boris Sichkin, Saveliy Kramarov, Vladimir Belokurov, Inna Churikova, Vasiliy Vasilyev, Valentina Kurdyukova, Mixail Metyolkin va boshqalar ...
Tavsif: Sobiq o'rta maktab o'quvchisi Valera, quvnoq Yasha-lo'lilar, qolgan etimlar, Danka va uning singlisi Ksanka Ataman Burnashning bo'linmasiga kirib, uni va uning guruhini Dankaning otasining o'limi uchun qasos olishga va'da berishdi. Ataman Burnashning eski do'stining o'g'li qiyofasida Danka Burnash otryadiga kirib oladi. Biroq, qaroqchilar bu haqda bilib olishdi. Danka qatl etish uchun zindonga tashlanadi, lekin do'stlari o'z o'rtog'ini yolg'iz qoldirishmaydi.-Videoning sifati: WEBRip
Video format: MKV
Video: V_MPEG4/ISO/AVC, 1280x568, 25.000 FPS, 7 007 kb/s
Audio: AC-3, 48.0 kHz, 448 kb/s, 6 kanalli, Rus tilida
Audio 2: AAC, 48.0 kHz, 151 kb/s, 2 kanalli, O'zbek tilida
- -

Media Info

General
Unique ID: 237554774673599709591517110513157628948 (0xB2B762A96ADCAC37117C6AD9BE5D6414)
Complete name: E:\MEDIA\Перевод\Archive\СССР\Неуловимые мстители • Tutqich bermas qasoskorlar • 1966 • WEBRip 720.mkv
Format: Matroska
Format version: Version 4
File size: 3.92 GiB
Duration: 1 h 13 min
Overall bit rate: 7 605 kb/s
Encoded date: UTC 2020-06-22 02:57:16
Writing application: mkvmerge v37.0.0 ('Leave It') 64-bit
Writing library: libebml v1.3.9 + libmatroska v1.5.2
Video
ID: 1
Format: AVC
Format/Info: Advanced Video Codec
Format profile: High@L4.1
Format settings: CABAC / 11 Ref Frames
Format settings, CABAC: Yes
Format settings, Reference fra: 11 frames
Codec ID: V_MPEG4/ISO/AVC
Duration: 1 h 13 min
Bit rate: 7 007 kb/s
Width: 1 280 pixels
Height: 568 pixels
Display aspect ratio: 2.25:1
Frame rate mode: Constant
Frame rate: 25.000 FPS
Color space: YUV
Chroma subsampling: 4:2:0
Bit depth: 8 bits
Scan type: Progressive
Bits/(Pixel*Frame): 0.386
Stream size: 3.61 GiB (92%)
Writing library: x264 core 148 r2744kMod b97ae06
Encoding settings: cabac=1 / ref=11 / deblock=1:-1:-1 / analyse=0x3:0x113 / me=umh / subme=10 / psy=1 / fade_compensate=0.00 / psy_rd=1.05:0.10 / mixed_ref=1 / me_range=32 / chroma_me=1 / trellis=2 / 8x8dct=1 / cqm=0 / deadzone=21,11 / fast_pskip=0 / chroma_qp_offset=-3 / threads=12 / lookahead_threads=2 / sliced_threads=0 / nr=0 / decimate=0 / interlaced=0 / bluray_compat=0 / constrained_intra=0 / bframes=8 / b_pyramid=2 / b_adapt=2 / b_bias=0 / direct=3 / weightb=1 / open_gop=0 / weightp=2 / keyint=250 / keyint_min=25 / scenecut=40 / intra_refresh=0 / rc_lookahead=40 / rc=2pass / mbtree=0 / bitrate=7007 / ratetol=1.0 / qcomp=0.63 / qpmin=0 / qpmax=39 / qpstep=4 / cplxblur=20.0 / qblur=0.5 / vbv_maxrate=50000 / vbv_bufsize=62500 / nal_hrd=none / filler=0 / ip_ratio=1.25 / pb_ratio=1.30 / aq=2:0.80
Language: Russian
Default: Yes
Forced: No
Color range: Limited
Color primaries: BT.709
Transfer characteristics: BT.709
Matrix coefficients: BT.709
Audio #1
ID: 2
Format: AC-3
Format/Info: Audio Coding 3
Commercial name: Dolby Digital
Codec ID: A_AC3
Duration: 1 h 13 min
Bit rate mode: Constant
Bit rate: 448 kb/s
Channel(s): 6 channels
Channel layout: L R C LFE Ls Rs
Sampling rate: 48.0 kHz
Frame rate: 31.250 FPS (1536 SPF)
Bit depth: 16 bits
Compression mode: Lossy
Delay relative to video: 2 s 107 ms
Stream size: 236 MiB (6%)
Title: Original
Language: Russian
Service kind: Complete Main
Default: No
Forced: No
Audio #2
ID: 3
Format: AAC LC
Format/Info: Advanced Audio Codec Low Complexity
Codec ID: A_AAC-2
Duration: 1 h 13 min
Bit rate: 151 kb/s
Channel(s): 2 channels
Channel layout: L R
Sampling rate: 48.0 kHz
Frame rate: 46.875 FPS (1024 SPF)
Compression mode: Lossy
Stream size: 79.6 MiB (2%)
Title: Dublyaj
Language: Uzbek
Default: Yes
Forced: No
Menu
00:00:00.000: en:Chapter 1
00:06:30.600: en:Chapter 2
00:11:01.800: en:Chapter 3
00:18:51.000: en:Chapter 4
00:26:24.000: en:Chapter 5
00:28:53.400: en:Chapter 6
00:40:48.600: en:Chapter 7
00:45:22.800: en:Chapter 8
00:48:29.400: en:Chapter 9
00:55:09.600: en:Chapter 10
01:00:57.600: en:Chapter 11
01:05:46.200: en:Chapter 12
"LAVHALAR"
Profil ShX
Xabarlarni ko‘rsatish:    

Hozirgi vaqt: 14-Iyul 11:25

Vaqtlar farqi: UTC + 5



Siz mavzu yaratishingiz mumkin emas
Siz xabarlarga javob qaytarishingiz mumkin emas
Siz o‘z xabarlaringizni tahrirlashingiz mumkin emas
Siz o‘z xabarlaringizni o‘chirishingiz mumkin emas
Siz so‘rovlarda ovoz berishingiz mumkin emas
Siz xabalarga fayllarni biriktirishingiz mumkin emas
Siz fayllarni ko‘chirishingiz mumkin emas