˂
˃
Tarqatmalar statistikasi
Ko‘chirib bo‘ldim: [ 15 ]
 
     
 
 

Muxammad-ali ®

Jins:
Yigit
Staj:
5 oy 15 kun
Xabarlar:
5
Taqiq:

O'qchi | Стрелок | Shooter
--Chiqqan yili: 2007
Davlat: AQSH
Janr: Jangari, detektiv, jinoyat, triller
Davomiyligi: 02:05:42
Tarjima: Professional (Ko'p ovozli kadr ortidan)
Rejissyor: Antuan Fukua
Rollarda: Mark Uolberg, Maykl Penya, Denni Glover, Keyt Mara, Elias Koteas, Rade Sherbedjiya, Ned Bitti,Rona Mitra, Jonatan Uolker, Luis Ferreyra,
Teyt Donovan, Levon Xelm, Mayk Dopud va boshqalar....
--Tavsif: Tajribali snayper Bob Li prezidentni o'ldirish uchun uyushtirilgan fitnaga aralashib qoladi. Ular Bobni aybdor qilib ko'rsatib va hukumatga "topshirishni"
xohlaydigan ko'rinadi, shuning uchun Bob imkon qadar qisqa vaqt ichida haqiqiy qotilni topishi va neytrallashtirishi kerak ...
--Videoning sifati: BDRip
Video format: MKV
Video: V_MPEG4/ISO/AVC, 1920х800, 23.976 FPS, 7561 kb/s
Audio: AC-3, 48.0 kHz, 640 kb/s, Rus tilida
Audio 2: AC-3, 48.0 kHz, 640 kb/s, English original
Audio 3: A_MPEG/L3, 48.0 kHz, 128 kb/s, O'zbek tilida (MY5)
Subtitrlar: Ingliz va rus tillarida
--

Media Info

General
Unique ID : 309941763300717623958459200383916281078 (0xE92C9CBF69451DEF0D26F950B0A58CF6)
Complete name : D:\Документы\Videos\Дубляж на фильмы\SHooter [ 2007 BDRip 1920p x800 24bit ] O`zbek tilida.mkv
Format : Matroska
Format version : Version 4 / Version 2
File size : 7.87 GiB
Duration : 2 h 5 min
Overall bit rate : 8 966 kb/s
Movie name : Стрелок.2007
Encoded date : UTC 2020-03-21 09:34:20
Writing application : mkvmerge v37.0.0 ('Leave It') 64-bit
Writing library : libebml v1.3.9 + libmatroska v1.5.2
Video
ID : 1
Format : AVC
Format/Info : Advanced Video Codec
Format profile : High@L4.1
Format settings, CABAC : Yes
Format settings, RefFrames : 5 frames
Codec ID : V_MPEG4/ISO/AVC
Duration : 2 h 5 min
Bit rate : 7 561 kb/s
Width : 1 920 pixels
Height : 800 pixels
Display aspect ratio : 2.40:1
Frame rate mode : Constant
Frame rate : 23.976 (24000/1001) FPS
Color space : YUV
Chroma subsampling : 4:2:0
Bit depth : 8 bits
Scan type : Progressive
Bits/(Pixel*Frame) : 0.205
Stream size : 6.63 GiB (84%)
Title : Rip by Boriy
Writing library : x264 core 130 r2273 b3065e6
Encoding settings : cabac=1 / ref=5 / deblock=1:0:0 / analyse=0x3:0x113 / me=umh / subme=10 / psy=1 / psy_rd=1.00:0.10 / mixed_ref=1 / me_range=32 / chroma_me=1 / trellis=2 / 8x8dct=1 / cqm=0 / deadzone=21,11 / fast_pskip=0 / chroma_qp_offset=-2 / threads=12 / lookahead_threads=1 / sliced_threads=0 / nr=0 / decimate=0 / interlaced=0 / bluray_compat=0 / constrained_intra=0 / bframes=5 / b_pyramid=2 / b_adapt=2 / b_bias=0 / direct=3 / weightb=1 / open_gop=0 / weightp=2 / keyint=240 / keyint_min=23 / scenecut=40 / intra_refresh=0 / rc=2pass / mbtree=0 / bitrate=7561 / ratetol=1.0 / qcomp=0.60 / qpmin=0 / qpmax=69 / qpstep=4 / cplxblur=20.0 / qblur=0.5 / ip_ratio=1.40 / pb_ratio=1.30 / aq=1:0.80
Language : English
Default : Yes
Forced : No
Audio #1
ID : 2
Format : AC-3
Format/Info : Audio Coding 3
Format settings, Endianness : Big
Codec ID : A_AC3
Duration : 2 h 5 min
Bit rate mode : Constant
Bit rate : 640 kb/s
Channel(s) : 6 channels
Channel positions : Front: L C R, Side: L R, LFE
Sampling rate : 48.0 kHz
Frame rate : 31.250 FPS (1536 SPF)
Bit depth : 16 bits
Compression mode : Lossy
Stream size : 575 MiB (7%)
Title : russian
Language : Russian
Service kind : Complete Main
Default : Yes
Forced : No
Audio #2
ID : 3
Format : AC-3
Format/Info : Audio Coding 3
Format settings, Endianness : Big
Codec ID : A_AC3
Duration : 2 h 5 min
Bit rate mode : Constant
Bit rate : 640 kb/s
Channel(s) : 6 channels
Channel positions : Front: L C R, Side: L R, LFE
Sampling rate : 48.0 kHz
Frame rate : 31.250 FPS (1536 SPF)
Bit depth : 16 bits
Compression mode : Lossy
Stream size : 575 MiB (7%)
Title : English original
Language : English
Service kind : Complete Main
Default : No
Forced : No
Audio #3
ID : 6
Format : MPEG Audio
Format version : Version 1
Format profile : Layer 3
Mode : Joint stereo
Mode extension : MS Stereo
Codec ID : A_MPEG/L3
Codec ID/Hint : MP3
Duration : 2 h 5 min
Bit rate mode : Constant
Bit rate : 128 kb/s
Channel(s) : 2 channels
Sampling rate : 48.0 kHz
Frame rate : 41.667 FPS (1152 SPF)
Compression mode : Lossy
Stream size : 115 MiB (1%)
Title : Uzbek
Writing library : LAME3.99.5
Language : Uzbek
Default : No
Forced : No
Text #1
ID : 4
Format : UTF-8
Codec ID : S_TEXT/UTF8
Codec ID/Info : UTF-8 Plain Text
Duration : 1 h 56 min
Bit rate : 96 b/s
Count of elements : 1482
Stream size : 82.4 KiB (0%)
Language : Russian
Default : No
Forced : No
Text #2
ID : 5
Format : UTF-8
Codec ID : S_TEXT/UTF8
Codec ID/Info : UTF-8 Plain Text
Duration : 1 h 56 min
Bit rate : 56 b/s
Count of elements : 1445
Stream size : 48.7 KiB (0%)
Language : English
Default : No
Forced : No
Menu
00:00:00.000 : :Chapter 1
00:08:13.117 : :Chapter 2
00:16:22.690 : :Chapter 3
00:23:13.308 : :Chapter 4
00:31:37.145 : :Chapter 5
00:39:02.631 : :Chapter 6
00:44:25.245 : :Chapter 7
00:51:27.292 : :Chapter 8
00:57:52.427 : :Chapter 9
01:05:09.739 : :Chapter 10
01:11:44.591 : :Chapter 11
01:18:00.801 : :Chapter 12
01:23:32.298 : :Chapter 13
01:29:56.891 : :Chapter 14
01:36:00.588 : :Chapter 15
01:39:56.657 : :Chapter 16
01:50:08.643 : :Chapter 17
01:55:31.341 : :Chapter 18
02:00:28.930 : :Chapter 19
"Lavhalar"
Profil ShX
Xabarlarni ko‘rsatish:    

Hozirgi vaqt: 14-Iyul 12:36

Vaqtlar farqi: UTC + 5



Siz mavzu yaratishingiz mumkin emas
Siz xabarlarga javob qaytarishingiz mumkin emas
Siz o‘z xabarlaringizni tahrirlashingiz mumkin emas
Siz o‘z xabarlaringizni o‘chirishingiz mumkin emas
Siz so‘rovlarda ovoz berishingiz mumkin emas
Siz xabalarga fayllarni biriktirishingiz mumkin emas
Siz fayllarni ko‘chirishingiz mumkin emas