˂
˃
Tarqatmalar statistikasi
Ko‘chirib bo‘ldim: [ 9 ]
 
     
 
 

Muxammad-ali ®

Jins:
Yigit
Staj:
5 oy 15 kun
Xabarlar:
5
Taqiq:

Olis-Olislarda | Далеко-Далеко | Far and Away-- Chiqqan yili: 1992
Davlat: AQSH
Janr: Drama, Romantika, Sarguzasht
Davomiyligi: 140 min./02:20
Tarjima: Professional (dublyaj qilingan)
Rejissyor: Ron Xovard
Rollarda: Tom Kruiz, Nikol Kidman, Tomas Gibson, Robert Proski, Barbara Babkok, Kolm Mini, Mishel Jonson, Jared Xarris, Kiril Kusak, Eylin Pollok va boshqalar...--Tavsif: Yaqinda otasini dafn qilgan Jozef Donelly yana bir qiyinchilikka duch keldi. O'z oilasining zaifligidan foydalangan holda, yer egasi Daniel Kristi o'zining yagona qiymatini - hozirgi paytda qimmat bo'lgan katta yer maydonini tortib oladi. Biroq, qahramon bunday xo'rlashga dosh berolmaydi, shuning uchun u jinoyatchidan o'ch olishga qaror qiladi va o'z uyiga yuklangan qurol bilan boradi. Afsuski, u o'z rejalarini amalga oshira olmaydi. Qurol bilan ish tutolmasa, u faqat o'zini jarohatlaydi va xo'jayinining rafiqasi yigitning yaralarini davolaydi. Garchi u Kristini jazolay olmagan bo'lsa-da, bu yerda u zamonaviy qarashlar bilan ajralib turadigan va Amerikaga sayohat qilish uchun sherik qidirayotgan bu odamning qizini uchratadi. Jozef, yangi dunyoda hamma narsani noldan boshlash mumkinligiga qaror qilib, yosh ayolga yordam berishga rozi bo'ldi. Yo'l davomida ularni ko'plab sarguzashtlar kutmoqda va natijada ajoyib tuyg'u paydo bo'ldi...--Videoning sifati: BDRip
Video format: MKV
Video: V_MPEG4/ISO/AVC, 1280x544, 25.000 FPS, 2500 kb/s
Audio: AAC-2, 48.0 kHz, 192 kb/s, Rus tilida
Audio 2: MPEG/L3, 48.0 kHz, 192 kb/s, O'zbek tilida, Kinoteatr
Subtitrlar: Mavjud emas
--

Media Info

General
Unique ID : 250867345304315016479615566996655609831 (0xBCBB4B11B6E734CC9DEF5F57043897E7)
Complete name : D:\Документы\Videos\Дубляж на фильмы\Daleko-daleko 1992. BDRip. 720p .mkv
Format : Matroska
Format version : Version 4 / Version 2
File size : 2.76 GiB
Duration : 2 h 19 min
Overall bit rate : 2 822 kb/s
Encoded date : UTC 2020-06-08 03:04:51
Writing application : mkvmerge v37.0.0 ('Leave It') 64-bit
Writing library : libebml v1.3.9 + libmatroska v1.5.2
Video
ID : 1
Format : AVC
Format/Info : Advanced Video Codec
Format profile : Main@L4
Format settings, CABAC : Yes
Format settings, RefFrames : 4 frames
Codec ID : V_MPEG4/ISO/AVC
Duration : 2 h 19 min
Bit rate : 2 500 kb/s
Width : 1 280 pixels
Height : 544 pixels
Display aspect ratio : 2.35:1
Frame rate mode : Constant
Frame rate : 25.000 FPS
Color space : YUV
Chroma subsampling : 4:2:0
Bit depth : 8 bits
Scan type : Progressive
Bits/(Pixel*Frame) : 0.144
Stream size : 2.44 GiB (89%)
Writing library : x264 core 142 r2431 a5831aa
Encoding settings : cabac=1 / ref=3 / deblock=0:-1:-1 / analyse=0x1:0x111 / me=hex / subme=7 / psy=1 / psy_rd=1.00:0.15 / mixed_ref=1 / me_range=16 / chroma_me=1 / trellis=1 / 8x8dct=0 / cqm=0 / deadzone=21,11 / fast_pskip=1 / chroma_qp_offset=-3 / threads=64 / lookahead_threads=4 / sliced_threads=0 / nr=0 / decimate=1 / interlaced=0 / bluray_compat=0 / constrained_intra=0 / bframes=3 / b_pyramid=2 / b_adapt=1 / b_bias=0 / direct=1 / weightb=1 / open_gop=0 / weightp=2 / keyint=250 / keyint_min=25 / scenecut=40 / intra_refresh=0 / rc_lookahead=40 / rc=2pass / mbtree=1 / bitrate=2500 / ratetol=1.0 / qcomp=0.60 / qpmin=0 / qpmax=69 / qpstep=4 / cplxblur=20.0 / qblur=0.5 / vbv_maxrate=20000 / vbv_bufsize=25000 / nal_hrd=none / filler=0 / ip_ratio=1.40 / aq=1:1.00
Default : Yes
Forced : No
Color range : Limited
Color primaries : BT.709
Transfer characteristics : BT.709
Matrix coefficients : BT.709
Audio #1
ID : 2
Format : AAC
Format/Info : Advanced Audio Codec
Format profile : LC
Codec ID : A_AAC
Duration : 2 h 19 min
Bit rate : 192 kb/s
Channel(s) : 2 channels
Channel positions : Front: L R
Sampling rate : 48.0 kHz
Frame rate : 46.875 FPS (1024 SPF)
Compression mode : Lossy
Delay relative to video : -22 ms
Stream size : 192 MiB (7%)
Title : Rus tili
Language : Russian
Default : Yes
Forced : No
Audio #2
ID : 3
Format : MPEG Audio
Format version : Version 1
Format profile : Layer 3
Mode : Joint stereo
Mode extension : MS Stereo
Codec ID : A_MPEG/L3
Codec ID/Hint : MP3
Duration : 2 h 19 min
Bit rate mode : Constant
Bit rate : 128 kb/s
Channel(s) : 2 channels
Sampling rate : 48.0 kHz
Frame rate : 41.667 FPS (1152 SPF)
Compression mode : Lossy
Delay relative to video : -22 ms
Stream size : 128 MiB (5%)
Title : Uzbek tilida Dub. Kinoteatr
Writing library : LAME3.99.5
Language : Uzbek
Default : No
Forced : No
"Lavhalar"
Profil ShX
Xabarlarni ko‘rsatish:    

Hozirgi vaqt: 14-Iyul 11:05

Vaqtlar farqi: UTC + 5



Siz mavzu yaratishingiz mumkin emas
Siz xabarlarga javob qaytarishingiz mumkin emas
Siz o‘z xabarlaringizni tahrirlashingiz mumkin emas
Siz o‘z xabarlaringizni o‘chirishingiz mumkin emas
Siz so‘rovlarda ovoz berishingiz mumkin emas
Siz xabalarga fayllarni biriktirishingiz mumkin emas
Siz fayllarni ko‘chirishingiz mumkin emas