˂
˃
Tarqatmalar statistikasi
Ko‘chirib bo‘ldim: [ 11 ]
 
     
 
 

Lock ®

Jins:
Yigit
Staj:
1 yil 9 oy
Xabarlar:
73

Qayerdan: Namangan

Taqiq:

2+1 Hammasi ertadan boshlanadi | Всё начинается завтра | Demain tout commence-- --Chiqqan yili: 2016
Davlat: Fransiya
Janr: Drama, oilaviy
Davomiyligi: 01:57:35
Tarjima: Professional (dublyaj qilingan)
Rejissyor: Hugo Gélin
Rollarda: Omar Sy, Clémence Poésy, Antoine Bertrand, Ashley Walters, Gloria Colston, Anna Cottis, Elaine Caulfield va boshqalar
Tavsif: Yaqinda, yigitda hech qanday muammo yo'q edi, uning hayoti xotirjam va o'lchovli edi. U o'z hayotini go'zal xonimlar va bekorchiliklarga sarfladi. Ammo bir kuni qizlaridan biri unga chaqaloqni tashladi va u tushunarsiz tomonga yashirindi. O'sha paytdan boshlab, uning hayoti juda o'zgarib ketdi. U yovvoyi hayotini tark etishga majbur bo'ldi. Endi u bo'sh vaqtini qiziga bag'ishladi. Vaqt o'tdi va qahramon qizi baxtli bo'lishi va ehtiyoj haqida hech narsa o'ylamasligi uchun hamma narsani qildi. U qizini maktabga o'qishga yubordi va u boshqa bolalar bilan tengqadam edi, buning uchun u ko'p kuch sarfladi. Sakkiz yil davomida u o'zini haqiqiy otadek his qilardi, chunki uning yonida u juda faxrlanadigan qizi edi. Ammo hozir, qizning onasi uyining ostonasida paydo bo'lgan payt keldi ...
--Videoning sifati: BDRip
Video format: MKV
Video: V_MPEGH/ISO/HEVC, 1280x536, 24.000 FPS, 2073 kb/s
Audio: AC-3, 48.0 kHz, 384 kb/s, 6 kanalli, Rus tilida
Audio 2: AC-3, 48.0 kHz, 448 kb/s, 6 kanalli, Fransuz tilida
Audio 3: AAC, 48.0 kHz, 165 kb/s, 2 kanalli, O'zbek tilida, Favvora film
--

Media Info

General
Unique ID : 231303797080509155099767805354391775020 (0xAE037DABEF90C6FB85202B3F40B6272C)
Complete name : E:\MEDIA\Перевод\Archive\Demain.Tout.Commence.2016.BDRip.720p.HEVC.mkv
Format : Matroska
Format version : Version 4
File size : 2.52 GiB
Duration : 1 h 57 min
Overall bit rate : 3 072 kb/s
Movie name : Demain Tout Commence (2016) - HEVC.CLUB
Encoded date : UTC 2020-06-05 09:08:55
Writing application : mkvmerge v37.0.0 ('Leave It') 64-bit
Writing library : libebml v1.3.9 + libmatroska v1.5.2
Cover : Yes
Attachments : cover.jpg
Video
ID : 1
Format : HEVC
Format/Info : High Efficiency Video Coding
Format profile : Main 10@L4.1@High
Codec ID : V_MPEGH/ISO/HEVC
Duration : 1 h 57 min
Bit rate : 2 073 kb/s
Width : 1 280 pixels
Height : 536 pixels
Display aspect ratio : 2.40:1
Original display aspect ratio : 2.40:1
Frame rate mode : Constant
Frame rate : 24.000 FPS
Color space : YUV
Chroma subsampling : 4:2:0
Bit depth : 10 bits
Bits/(Pixel*Frame) : 0.126
Stream size : 1.70 GiB (67%)
Title : HEVC.CLUB
Writing library : x265 2.3+17-6e348252e902:[Windows][GCC 6.3.0][64 bit] 10bit
Encoding settings : cpuid=1310975 / frame-threads=2 / numa-pools=4 / wpp / no-pmode / no-pme / no-psnr / ssim / log-level=2 / input-csp=1 / input-res=1280x536 / interlace=0 / total-frames=0 / level-idc=41 / high-tier=1 / uhd-bd=0 / ref=6 / no-allow-non-conformance / repeat-headers / annexb / aud / hrd / info / hash=0 / no-temporal-layers / open-gop / min-keyint=23 / keyint=250 / bframes=10 / b-adapt=2 / b-pyramid / bframe-bias=0 / rc-lookahead=60 / lookahead-slices=0 / scenecut=40 / no-intra-refresh / ctu=64 / min-cu-size=8 / no-rect / no-amp / max-tu-size=32 / tu-inter-depth=3 / tu-intra-depth=3 / limit-tu=0 / rdoq-level=1 / dynamic-rd=2.00 / signhide / no-tskip / nr-intra=0 / nr-inter=0 / no-constrained-intra / no-strong-intra-smoothing / max-merge=2 / limit-refs=3 / no-limit-modes / me=1 / subme=4 / merange=64 / temporal-mvp / weightp / weightb / no-analyze-src-pics / deblock=-3:-3 / no-sao / no-sao-non-deblock / rd=4 / no-early-skip / no-rskip / no-fast-intra / no-tskip-fast / no-cu-lossless / no-b-intra / rdpenalty=0 / psy-rd=1.60 / psy-rdoq=2.30 / no-rd-refine / analysis-mode=0 / no-lossless / cbqpoffs=0 / crqpoffs=0 / rc=crf / crf=21.0 / qcomp=0.90 / qpstep=6 / stats-write=0 / stats-read=0 / vbv-maxrate=50000 / vbv-bufsize=50000 / vbv-init=0.9 / crf-max=0.0 / crf-min=0.0 / ipratio=1.50 / pbratio=1.00 / aq-mode=1 / aq-strength=0.80 / no-cutree / zone-count=0 / no-strict-cbr / qg-size=32 / no-rc-grain / qpmax=69 / qpmin=0 / sar=255 / sar-width / : / sar-height=201:200 / overscan=0 / videoformat=5 / range=0 / colorprim=2 / transfer=2 / colormatrix=1 / chromaloc=0 / display-window=0 / max-cll=0,0 / min-luma=0 / max-luma=1023 / log2-max-poc-lsb=8 / vui-timing-info / vui-hrd-info / slices=1 / opt-qp-pps / opt-ref-list-length-pps / no-multi-pass-opt-rps / scenecut-bias=0.05 / no-opt-cu-delta-qp / aq-motion / no-hdr / no-hdr-optrefine-level=5
Default : Yes
Forced : Yes
Color range : Limited
Matrix coefficients : BT.709
Audio #1
ID : 2
Format : AC-3
Format/Info : Audio Coding 3
Commercial name : Dolby Digital
Codec ID : A_AC3
Duration : 1 h 57 min
Bit rate mode : Constant
Bit rate : 384 kb/s
Channel(s) : 6 channels
Channel layout : L R C LFE Ls Rs
Sampling rate : 48.0 kHz
Frame rate : 31.250 FPS (1536 SPF)
Bit depth : 16 bits
Compression mode : Lossy
Stream size : 322 MiB (12%)
Title : Dub [iTunes]
Language : Russian
Service kind : Complete Main
Default : No
Forced : No
Audio #2
ID : 3
Format : AC-3
Format/Info : Audio Coding 3
Commercial name : Dolby Digital
Codec ID : A_AC3
Duration : 1 h 57 min
Bit rate mode : Constant
Bit rate : 448 kb/s
Channel(s) : 6 channels
Channel layout : L R C LFE Ls Rs
Sampling rate : 48.0 kHz
Frame rate : 31.250 FPS (1536 SPF)
Bit depth : 16 bits
Compression mode : Lossy
Stream size : 377 MiB (15%)
Title : Original
Language : French
Service kind : Complete Main
Default : No
Forced : No
Audio #3
ID : 4
Format : AAC LC
Format/Info : Advanced Audio Codec Low Complexity
Codec ID : A_AAC-2
Duration : 1 h 57 min
Bit rate : 165 kb/s
Channel(s) : 2 channels
Channel layout : L R
Sampling rate : 48.0 kHz
Frame rate : 46.875 FPS (1024 SPF)
Compression mode : Lossy
Stream size : 139 MiB (5%)
Title : Favvora film
Language : Uzbek
Default : Yes
Forced : No
Menu
00:00:00.000 : en:Chapter 1
00:07:24.375 : en:Chapter 2
00:16:56.166 : en:Chapter 3
00:22:22.250 : en:Chapter 4
00:27:17.375 : en:Chapter 5
00:32:08.083 : en:Chapter 6
00:38:12.458 : en:Chapter 7
00:45:13.125 : en:Chapter 8
00:57:18.750 : en:Chapter 9
01:02:31.958 : en:Chapter 10
01:14:24.708 : en:Chapter 11
01:22:30.125 : en:Chapter 12
01:29:07.708 : en:Chapter 13
01:37:38.500 : en:Chapter 14
01:42:55.791 : en:Chapter 15
01:50:05.458 : en:Chapter 16
--"Lavhalar"
Profil ShX
Xabarlarni ko‘rsatish:    

Hozirgi vaqt: 14-Iyul 13:02

Vaqtlar farqi: UTC + 5



Siz mavzu yaratishingiz mumkin emas
Siz xabarlarga javob qaytarishingiz mumkin emas
Siz o‘z xabarlaringizni tahrirlashingiz mumkin emas
Siz o‘z xabarlaringizni o‘chirishingiz mumkin emas
Siz so‘rovlarda ovoz berishingiz mumkin emas
Siz xabalarga fayllarni biriktirishingiz mumkin emas
Siz fayllarni ko‘chirishingiz mumkin emas