˂
˃
Tarqatmalar statistikasi
Ko‘chirmoqdaman: [ 9 ]
Ko‘chirib bo‘ldim: [ 8 ]
 
     
 
 

UmarShoh ®

Jins:
Yigit
Staj:
2 yil 4 oy
Xabarlar:
431
Taqiq:

- The Hobbit: An Unexpected Journey / Hobbit: Kutilmagan Sayohat
--
Chiqqan yili: 2012
Davlat: AQSH, Yangi Zellandiya
Janr: Fantastika, sarguzasht, jangari.
Davomiyligi: 03:02:31
Tarjima:
To'liq dublyaj qilingan [My5 Uzb]
Subtitrlar: Inglizcha.-Rejissyor: Peter Jackson.--Rollarda: Martin Freeman, Ian McKellen, Richard Armitage, James Nesbitt, Ken Stott, Graham McTawish, Dean O’Gorman, Aidan Turner, Stephen Hunter, Sylvester McCoy va boshqalar...--Tavsif: Hobbit Bilbo Baggins katta kampaniyani boshlamoqda, uning maqsadi Dwarves Erebor qirolichasini ajdaho Smaugdan qaytarib olishdir.
Sehrgar Gandalf Grey kutilmaganda hobbit bilan aloqa o'rnatdi.
Shunday qilib, Bilbo o'zini topadi va afsonaviy jangchi Torin Oakenshild boshchiligidagi o'n uchta gom guruhiga qo'shiladi.
Ularning sayohati Yovvoyi erdan, goblinlar va orklar yashaydigan xiyonatkor erlar, halokatli ariqlar, ulkan o'rgimchaklar, odamlar va sehrgarlarning terisini o'zgartiradi...-- -Sifat: BDRip HEVC 10bit
Format: MKV
Video: HEVC, 1920x800, 2000 kbps, 23,976 fps
Audio №1: O`zbek tilida / MP3 / 2.0 / 48 kHz / 128 kbps /
Audio №3: Ingliz tilida / AAC / 7.1 / 48 kHz / 224 kbps /-

Media Info


General
Unique ID : 338319054450950008073048168810265892712 (0xFE85E138C359F3A3116D31938FAAD768)
Complete name : C:\Users\Umar\Desktop\Hobbit\01) The Hobbit An Unexpected Journey [ 2012 BluRay 1080p x265 10bit ] O`zbek tilida.mkv
Format : Matroska
Format version : Version 4
File size : 3.01 GiB
Duration : 3 h 2 min
Overall bit rate : 2 358 kb/s
Encoded date : UTC 2020-06-04 13:48:02
Writing application : mkvmerge v47.0.0 ('Black Flag') 64-bit
Writing library : libebml v1.3.10 + libmatroska v1.5.2
Cover : Yes
Attachments : Cover.png
Video
ID : 1
Format : HEVC
Format/Info : High Efficiency Video Coding
Format profile : Main 10@L4@Main
Codec ID : V_MPEGH/ISO/HEVC
Duration : 3 h 2 min
Bit rate : 2 000 kb/s
Width : 1 920 pixels
Height : 800 pixels
Display aspect ratio : 2.40:1
Frame rate mode : Constant
Frame rate : 23.976 (24000/1001) FPS
Color space : YUV
Chroma subsampling : 4:2:0
Bit depth : 10 bits
Bits/(Pixel*Frame) : 0.054
Stream size : 2.55 GiB (85%)
Writing library : x265 3.3+4-rarbg-30eb4de83092:[Linux][GCC 8.3.1][64 bit] 10bit
Encoding settings : cpuid=1111039 / frame-threads=4 / wpp / no-pmode / no-pme / no-psnr / no-ssim / log-level=2 / input-csp=1 / input-res=1920x800 / interlace=0 / total-frames=0 / level-idc=0 / high-tier=1 / uhd-bd=0 / ref=4 / no-allow-non-conformance / no-repeat-headers / annexb / no-aud / no-hrd / info / hash=0 / no-temporal-layers / open-gop / min-keyint=23 / keyint=250 / gop-lookahead=0 / bframes=4 / b-adapt=2 / b-pyramid / bframe-bias=0 / rc-lookahead=25 / lookahead-slices=4 / scenecut=40 / hist-scenecut=0 / radl=0 / no-splice / no-intra-refresh / ctu=64 / min-cu-size=8 / rect / no-amp / max-tu-size=32 / tu-inter-depth=1 / tu-intra-depth=1 / limit-tu=0 / rdoq-level=2 / dynamic-rd=0.00 / no-ssim-rd / signhide / no-tskip / nr-intra=0 / nr-inter=0 / no-constrained-intra / strong-intra-smoothing / max-merge=3 / limit-refs=3 / limit-modes / me=3 / subme=3 / merange=57 / temporal-mvp / no-frame-dup / no-hme / weightp / no-weightb / no-analyze-src-pics / deblock=0:0 / no-sao / no-sao-non-deblock / rd=4 / selective-sao=0 / no-early-skip / rskip / no-fast-intra / no-tskip-fast / no-cu-lossless / no-b-intra / no-splitrd-skip / rdpenalty=0 / psy-rd=2.00 / psy-rdoq=1.00 / no-rd-refine / no-lossless / cbqpoffs=0 / crqpoffs=0 / rc=abr / bitrate=2000 / qcomp=0.60 / qpstep=4 / stats-write=0 / stats-read=2 / cplxblur=20.0 / qblur=0.5 / ipratio=1.40 / pbratio=1.30 / aq-mode=3 / aq-strength=1.00 / cutree / zone-count=0 / no-strict-cbr / qg-size=32 / no-rc-grain / qpmax=69 / qpmin=0 / no-const-vbv / sar=1 / overscan=0 / videoformat=5 / range=0 / colorprim=2 / transfer=2 / colormatrix=2 / chromaloc=0 / display-window=0 / cll=0,0 / min-luma=0 / max-luma=1023 / log2-max-poc-lsb=8 / vui-timing-info / vui-hrd-info / slices=1 / no-opt-qp-pps / no-opt-ref-list-length-pps / no-multi-pass-opt-rps / scenecut-bias=0.05 / hist-threshold=0.01 / no-opt-cu-delta-qp / no-aq-motion / no-hdr10 / no-hdr10-opt / no-dhdr10-opt / no-idr-recovery-sei / analysis-reuse-level=0 / analysis-save-reuse-level=0 / analysis-load-reuse-level=0 / scale-factor=0 / refine-intra=0 / refine-inter=0 / refine-mv=1 / refine-ctu-distortion=0 / no-limit-sao / ctu-info=0 / no-lowpass-dct / refine-analysis-type=0 / copy-pic=1 / max-ausize-factor=1.0 / no-dynamic-refine / no-single-sei / no-hevc-aq / no-svt / no-field / qp-adaptation-range=1.00 / no-scenecut-aware-qpconformance-window-offsets / right=0 / bottom=0
Default : Yes
Forced : No
Audio #1
ID : 2
Format : AAC LC
Format/Info : Advanced Audio Codec Low Complexity
Codec ID : A_AAC-2
Duration : 3 h 2 min
Bit rate : 224 kb/s
Channel(s) : 6 channels
Channel layout : C L R Ls Rs LFE
Sampling rate : 48.0 kHz
Frame rate : 46.875 FPS (1024 SPF)
Compression mode : Lossy
Delay relative to video : 41 ms
Stream size : 292 MiB (9%)
Language : English
Default : Yes
Forced : No
Audio #2
ID : 3
Format : MPEG Audio
Format version : Version 1
Format profile : Layer 3
Format settings : Joint stereo / MS Stereo
Codec ID : A_MPEG/L3
Codec ID/Hint : MP3
Duration : 3 h 2 min
Bit rate mode : Constant
Bit rate : 128 kb/s
Channel(s) : 2 channels
Sampling rate : 44.1 kHz
Frame rate : 38.281 FPS (1152 SPF)
Compression mode : Lossy
Stream size : 167 MiB (5%)
Title : My5 (UmarShoh_FL)
Writing library : LAME3.99.5
Language : Uzbek
Default : No
Forced : No
Text
ID : 4
Format : UTF-8
Codec ID : S_TEXT/UTF8
Codec ID/Info : UTF-8 Plain Text
Duration : 2 h 55 min
Bit rate : 46 b/s
Count of elements : 2188
Stream size : 59.3 KiB (0%)
Language : English
Default : Yes
Forced : No

Miniatyura


Profil ShX

Toirbek

Jins:
Ko‘rsatilmagan
Staj:
2 yil 6 oy
Xabarlar:
14
Taqiq:

Oxirigacha tarqatinde

Mavzu yaratish 07-Iyun-2020 12:34 (2 kun 17 soat o‘tgach)

Iqitibos

Profil ShX
Xabarlarni ko‘rsatish:    

Hozirgi vaqt: 14-Iyul 12:45

Vaqtlar farqi: UTC + 5



Siz mavzu yaratishingiz mumkin emas
Siz xabarlarga javob qaytarishingiz mumkin emas
Siz o‘z xabarlaringizni tahrirlashingiz mumkin emas
Siz o‘z xabarlaringizni o‘chirishingiz mumkin emas
Siz so‘rovlarda ovoz berishingiz mumkin emas
Siz xabalarga fayllarni biriktirishingiz mumkin emas
Siz fayllarni ko‘chirishingiz mumkin emas