˂
˃
Tarqatmalar statistikasi
Yoʻq
 
     
 
 

AxeL ®

Jins:
Yigit
Staj:
2 yil 3 oy
Xabarlar:
775

Qayerdan: Gronland, Norway

Taqiq:

- Joker / Джокер / Joker- Chiqqan yili: 2019
Davlat: AQSh, Kanada
Janr: triller, drama, kriminal
Davomiyligi: 02:01:49
Tarjima:
    Rus tilida
    O'zbek tilida

Subtitrlar: Rus, Ingliz tilida
-Rejissyor: Todd Fillips / Тодд Филлипс-Rollarda: Hoakin Feniks, Roberto De Niro, Zazi Bits, Frensis Konroy, Brett Kallen, Shey Uigem, Bill Kemp, Glen Fleshler,
Li Gill, Josh Peys-Tavsif: Gotham, 1980-yillarning boshlari. Komediyachi Artur Flek bolaligidan boshlab unga "tabassum bilan yurishni" o'rgatgan kasal onasi bilan yashaydi. Dunyoga yaxshiliklarni olib kelishga va odamlarga quvonch bag'ishlashga intilayotgan Artur, insonning shafqatsizligiga duch keladi va asta-sekin bu dunyo undan yaxshi tabassumni emas, balki yovuz Jokerning kulishini oladi degan xulosaga keladi.-КиноПоиск: 8.005 324 080
IMDb: 8.50 (785 848)-Sifat: BRRip 720p HEVC
Format: MKV
Video: HVC1 1280x694 23.976fps 382 kb/s
Audio №1: AAC 48000Hz stereo 72.0 kb/s Ingliz tilida
Audio №2: AAC 44100Hz stereo 196 kb/s O'zbek tilida-

Media Info

General
Unique ID : 162693908023069253191133056203905134029 (0x7A65B4F8E9905E5F5F4C7912BDA96DCD)
Complete name : D:\Video Files\Tarjima\Joker.2019.BRRip.720p.x265.mkv
Format : Matroska
Format version : Version 4
File size : 569 MiB
Duration : 2 h 1 min
Overall bit rate : 653 kb/s
Movie name : Joker.2019.720p.BrRip.x265.HEVCBay.com.mkv
Encoded date : UTC 2020-05-27 13:49:18
Writing application : mkvmerge v46.0.0 ('No Deeper Escape') 64-bit
Writing library : libebml v1.3.10 + libmatroska v1.5.2
Cover : Yes
Video
ID : 1
Format : HEVC
Format/Info : High Efficiency Video Coding
Format profile : Main@L3.1@Main
Codec ID : V_MPEGH/ISO/HEVC
Duration : 2 h 1 min
Bit rate : 382 kb/s
Width : 1 280 pixels
Height : 694 pixels
Display aspect ratio : 1.85:1
Original display aspect ratio : 1.85:1
Frame rate mode : Constant
Frame rate : 23.976 (24000/1001) FPS
Color space : YUV
Chroma subsampling : 4:2:0
Bit depth : 8 bits
Bits/(Pixel*Frame) : 0.018
Stream size : 333 MiB (58%)
Default : Yes
Forced : No
Color range : Limited
Audio #1
ID : 2
Format : AAC LC SBR
Format/Info : Advanced Audio Codec Low Complexity with Spectral Band Replication
Commercial name : HE-AAC
Format settings : NBC
Codec ID : A_AAC-5
Duration : 2 h 1 min
Bit rate : 72.0 kb/s
Channel(s) : 2 channels
Channel layout : L R
Sampling rate : 48.0 kHz
Frame rate : 23.438 FPS (2048 SPF)
Compression mode : Lossy
Delay relative to video : -105 ms
Stream size : 62.8 MiB (11%)
Title : Ingliz tilida
Language : English
Default : Yes
Forced : No
Audio #2
ID : 5
Format : AAC LC
Format/Info : Advanced Audio Codec Low Complexity
Codec ID : A_AAC-2
Duration : 2 h 1 min
Bit rate : 196 kb/s
Channel(s) : 2 channels
Channel layout : L R
Sampling rate : 44.1 kHz
Frame rate : 43.066 FPS (1024 SPF)
Compression mode : Lossy
Delay relative to video : -105 ms
Stream size : 171 MiB (30%)
Title : O'zbek tilida (DUB) AxeL
Language : Uzbek
Default : No
Forced : No
Text #1
ID : 3
Format : UTF-8
Codec ID : S_TEXT/UTF8
Codec ID/Info : UTF-8 Plain Text
Duration : 1 h 58 min
Bit rate : 55 b/s
Count of elements : 1735
Stream size : 47.9 KiB (0%)
Title : English SDH
Language : English
Default : No
Forced : No
Text #2
ID : 4
Format : UTF-8
Codec ID : S_TEXT/UTF8
Codec ID/Info : UTF-8 Plain Text
Duration : 1 h 58 min
Bit rate : 82 b/s
Count of elements : 1279
Stream size : 71.8 KiB (0%)
Title : RUS | FULL
Language : Russian
Default : No
Forced : No


FILMDAN LAVHALAR
Profil ShX
Xabarlarni ko‘rsatish:    

Hozirgi vaqt: 14-Iyul 12:38

Vaqtlar farqi: UTC + 5



Siz mavzu yaratishingiz mumkin emas
Siz xabarlarga javob qaytarishingiz mumkin emas
Siz o‘z xabarlaringizni tahrirlashingiz mumkin emas
Siz o‘z xabarlaringizni o‘chirishingiz mumkin emas
Siz so‘rovlarda ovoz berishingiz mumkin emas
Siz xabalarga fayllarni biriktirishingiz mumkin emas
Siz fayllarni ko‘chirishingiz mumkin emas