˂
˃
Tarqatmalar statistikasi
Ko‘chiraman: [ 1 ]
Ko‘chirmoqdaman: [ 2 ]
Ko‘chirib bo‘ldim: [ 21 ]
 
     
 
 

Lock ®

Jins:
Yigit
Staj:
1 yil 9 oy
Xabarlar:
73

Qayerdan: Namangan

Taqiq:

Imtixon o'yinlari | Плохой гений | Bad Genius-- Chiqqan yili: 2017
Davlat: Tailand
Janr: Drama, komediya , triller
Davomiyligi: 02:09:53
Tarjima: Professional (dublyaj qilingan)
Rejissyor: Nattawut Poonpiriya
Rollarda: Chutimon Chuengcharoensukying, Eisaya Hosuwan, Teeradon Supapunpinyo, Chanon Santinatornkul, Thaneth Warakulnukroh, Sarinrat Thomas, Ego Mikitas va boshqalar
Tavsif: Zo'r talaba va medalchi Lynni oltin yoshlari tahsil oladigan qimmatbaho nufuzli maktabga ko'chiriladi va darhol matematikada kuchli bo'lmagan Greys bilan do'stlashadi. Bir marta Lin imtihonda o'zining eng yaqin do'stiga yordam beradi va endi imtihon javoblari uchun pul to'lashni istagan badavlat o'rta maktab o'quvchilari navbatida. Linning otasi oddiy maktab o'qituvchisi bo'lganligi sababli va ular yaxshi yashamas edi, qiz miyasini sotishga qaror qiladi va to'g'ri javoblarni etkazishning aqlli tizimini ishlab chiqadi.--Videoning sifati: BDRip
Video format: MKV
Video: V_MPEGH/ISO/HEVC, 1920x804, 24.000 FPS, 3 494 kb/s
Audio: AC-3, 44.1 kHz, 192 kb/s, Rus tilida
Audio 2: AC-3, 48.0 kHz, 640 kb/s, Thai
Audio 3: AAC, 48.0 kHz, 165 kb/s, O'zbek tilida, Favvora film
Subtitrlar: Ingliz tilida

Media Info

General
Unique ID: 291567946305127479803268419590581850446 (0xDB59F1A0E41FA1824240E95D6E6F114E)
Complete name: E:\MEDIA\Перевод\Archive\Bad.Genius.2017.BluRay.1080p.HEVC.mkv
Format: Matroska
Format version: Version 4
File size: 4.08 GiB
Duration: 2 h 9 min
Overall bit rate: 4 494 kb/s
Encoded date: UTC 2020-05-17 22:21:25
Writing application: mkvmerge v37.0.0 ('Leave It') 64-bit
Writing library: libebml v1.3.9 + libmatroska v1.5.2
Video
ID: 1
Format: HEVC
Format/Info: High Efficiency Video Coding
Format profile: Main@L4@Main
Codec ID: V_MPEGH/ISO/HEVC
Duration: 2 h 9 min
Bit rate: 3 494 kb/s
Width: 1 920 pixels
Height: 804 pixels
Display aspect ratio: 2.40:1
Frame rate mode: Constant
Frame rate: 24.000 FPS
Color space: YUV
Chroma subsampling: 4:2:0
Bit depth: 8 bits
Bits/(Pixel*Frame): 0.094
Stream size: 3.17 GiB (78%)
Writing library: x265 3.2.1+1-b5c86a64bbbe:[Windows][GCC 9.2.0][64 bit] 8bit+10bit+12bit
Encoding settings: cpuid=1111039 / frame-threads=2 / numa-pools=6 / wpp / no-pmode / no-pme / no-psnr / no-ssim / log-level=2 / input-csp=1 / input-res=1920x804 / interlace=0 / total-frames=0 / level-idc=0 / high-tier=1 / uhd-bd=0 / ref=4 / no-allow-non-conformance / no-repeat-headers / annexb / no-aud / no-hrd / info / hash=0 / no-temporal-layers / open-gop / min-keyint=24 / keyint=240 / gop-lookahead=0 / bframes=4 / b-adapt=2 / b-pyramid / bframe-bias=0 / rc-lookahead=25 / lookahead-slices=4 / scenecut=40 / radl=0 / no-splice / no-intra-refresh / ctu=64 / min-cu-size=8 / no-rect / no-amp / max-tu-size=32 / tu-inter-depth=1 / tu-intra-depth=1 / limit-tu=0 / rdoq-level=2 / dynamic-rd=0.00 / no-ssim-rd / signhide / no-tskip / nr-intra=0 / nr-inter=0 / no-constrained-intra / no-strong-intra-smoothing / max-merge=3 / limit-refs=3 / limit-modes / me=3 / subme=3 / merange=57 / temporal-mvp / no-hme / weightp / no-weightb / no-analyze-src-pics / deblock=0:0 / sao / no-sao-non-deblock / rd=4 / selective-sao=4 / no-early-skip / rskip / no-fast-intra / no-tskip-fast / no-cu-lossless / no-b-intra / no-splitrd-skip / rdpenalty=0 / psy-rd=2.00 / psy-rdoq=1.00 / no-rd-refine / no-lossless / cbqpoffs=0 / crqpoffs=0 / rc=crf / crf=18.0 / qcomp=0.60 / qpstep=4 / stats-write=0 / stats-read=0 / ipratio=1.40 / pbratio=1.30 / aq-mode=1 / aq-strength=1.00 / cutree / zone-count=0 / no-strict-cbr / qg-size=32 / no-rc-grain / qpmax=69 / qpmin=0 / no-const-vbv / sar=1 / overscan=0 / videoformat=5 / range=0 / colorprim=1 / transfer=1 / colormatrix=1 / chromaloc=0 / display-window=0 / cll=0,0 / min-luma=0 / max-luma=255 / log2-max-poc-lsb=8 / vui-timing-info / vui-hrd-info / slices=1 / no-opt-qp-pps / no-opt-ref-list-length-pps / no-multi-pass-opt-rps / scenecut-bias=0.05 / no-opt-cu-delta-qp / no-aq-motion / no-hdr / no-hdr-opt / no-dhdr10-opt / no-idr-recovery-sei / analysis-reuse-level=5 / scale-factor=0 / refine-intra=0 / refine-inter=0 / refine-mv=1 / refine-ctu-distortion=0 / no-limit-sao / ctu-info=0 / no-lowpass-dct / refine-analysis-type=0 / copy-pic=1 / max-ausize-factor=1.0 / no-dynamic-refine / no-single-sei / no-hevc-aq / no-svt / no-field / qp-adaptation-range=1.00
Default: Yes
Forced: No
Color range: Limited
Color primaries: BT.709
Transfer characteristics: BT.709
Matrix coefficients: BT.709
Audio #1
ID: 2
Format: AC-3
Format/Info: Audio Coding 3
Commercial name: Dolby Digital
Codec ID: A_AC3
Duration: 2 h 9 min
Bit rate mode: Constant
Bit rate: 192 kb/s
Channel(s): 2 channels
Channel layout: L R
Sampling rate: 44.1 kHz
Frame rate: 28.711 FPS (1536 SPF)
Bit depth: 16 bits
Compression mode: Lossy
Delay relative to video: -21 ms
Stream size: 178 MiB (4%)
Language: Russian
Service kind: Complete Main
Default: No
Forced: No
Audio #2
ID: 3
Format: AC-3
Format/Info: Audio Coding 3
Commercial name: Dolby Digital
Codec ID: A_AC3
Duration: 2 h 9 min
Bit rate mode: Constant
Bit rate: 640 kb/s
Channel(s): 6 channels
Channel layout: L R C LFE Ls Rs
Sampling rate: 48.0 kHz
Frame rate: 31.250 FPS (1536 SPF)
Bit depth: 16 bits
Compression mode: Lossy
Delay relative to video: -21 ms
Stream size: 595 MiB (14%)
Title: Original
Language: Thai
Service kind: Complete Main
Default: No
Forced: No
Audio #3
ID: 4
Format: AAC LC
Format/Info: Advanced Audio Codec Low Complexity
Codec ID: A_AAC-2
Duration: 2 h 9 min
Bit rate: 165 kb/s
Channel(s): 2 channels
Channel layout: L R
Sampling rate: 48.0 kHz
Frame rate: 46.875 FPS (1024 SPF)
Compression mode: Lossy
Delay relative to video: -21 ms
Stream size: 154 MiB (4%)
Title: Favvora film
Language: Uzbek
Default: Yes
Forced: No
Text
ID: 5
Format: UTF-8
Codec ID: S_TEXT/UTF8
Codec ID/Info: UTF-8 Plain Text
Duration: 2 h 3 min
Bit rate: 37 b/s
Count of elements: 1281
Stream size: 33.4 KiB (0%)
Language: English
Default: No
Forced: No
Menu
00:00:00.000: :Chapter 01
00:09:00.792: :Chapter 02
00:21:20.208: :Chapter 03
00:30:46.125: :Chapter 04
00:41:38.375: :Chapter 05
00:52:55.917: :Chapter 06
01:05:51.083: :Chapter 07
01:16:34.000: :Chapter 08
01:25:22.417: :Chapter 09
01:37:36.500: :Chapter 10
01:49:19.375: :Chapter 11
01:57:19.542: :Chapter 12
LAVHALAR


So‘ngi marta tahrirlandi: Lock (2020-06-05 19:31), Jami tahrirlangan 1 marta
Profil ShX

#Maksadjon_17

Jins:
Yigit
Staj:
11 oy 15 kun
Xabarlar:
35

Qayerdan: Namangan, Chartak

Taqiq:

Lock, Tezlikka gap bo'lishi mumkinmas qoyil RAHMAT!

Mavzu yaratish 26-May-2020 17:17 (40 daqiqa o‘tgach)

Iqitibos

Profil ShX

Lock ®

Jins:
Yigit
Staj:
1 yil 9 oy
Xabarlar:
73

Qayerdan: Namangan

Taqiq:

;)

Mavzu yaratish 26-May-2020 17:29 (11 daqiqa o‘tgach)

Iqitibos

Profil ShX
Xabarlarni ko‘rsatish:    

Hozirgi vaqt: 14-Iyul 11:07

Vaqtlar farqi: UTC + 5



Siz mavzu yaratishingiz mumkin emas
Siz xabarlarga javob qaytarishingiz mumkin emas
Siz o‘z xabarlaringizni tahrirlashingiz mumkin emas
Siz o‘z xabarlaringizni o‘chirishingiz mumkin emas
Siz so‘rovlarda ovoz berishingiz mumkin emas
Siz xabalarga fayllarni biriktirishingiz mumkin emas
Siz fayllarni ko‘chirishingiz mumkin emas