˂
˃
Tarqatmalar statistikasi
Ko‘chirmoqdaman: [ 1 ]
Ko‘chirib bo‘ldim: [ 21 ]
 
     
 
 

#Maksadjon_17 ®

Jins:
Yigit
Staj:
11 oy 15 kun
Xabarlar:
35

Qayerdan: Namangan, Chartak

Taqiq:

Yigirma bir / Двадцать одно / Twenty one
--Chiqqan yili: 2008
Davlat: AQSh
Janr: Jinoyat
Davomiyligi: 02:02:41
Tarjima: Professional (dublyaj qilingan) Uzbek tilida
Tarjima 2: Professional (dublyaj qilingan) Rus tilida
Tarjima 3: Professional (dublyaj qilingan) Ingliz tilida | Original-Rejissyor: Robert Luketic-Rollarda: Jim Sturgess, Kevin Speysi, Kate Bosvort, Aaron Yoo, Lisa Lapira, Jeykob Pitts, Lourens Fishbourne, Jek MakGi, Josh Gad, Sem Golzari.-Tavsif: Karta o'yini - bu noyob matematik hisob-kitoblar, zo'r aktyorlik qobiliyatlari va ajoyib ekspozitsiya. Kartochka o'yinchisi - bu maxsus omborning egasi. Yoshlar asrning hünirini qo'zg'ashga va mamlakatdagi eng katta kazinolarni astronomik miqdor bilan vayron qilishga qaror qildilar. Ular Vegasni olishga qaror qilishdi! Ulardan beshtasi bor. O'yin ularni to'liq egallab oldi. Ularning o'yini mahorat bilan hayratga tushdi. Ular o'yin jarayonini o'zi o'zgartirdilar.-Videoning sifati: BDRip 720p H.264
Video format: MKV
Video: AVC, 1280 x 528 (2.424) 2607 kbps at 23.976 fps
Audio: AAC, 48.0 kHz, 2 ch, 256 kb/s, Uzbek
Audio 2: AC-3, 48.0 kHz, 6 ch, 384 kb/s, Russian
Audio 2: AC-3, 48.0 kHz, 6 ch, 384 kb/s, English-Subtitrlar: UTF-8 Russian, UTF-8 English.

Media Info

General
Unique ID : 236010033514539355973791708064174091193 (0xB18DE10ADF5141656420E77324DCABB9)
Complete name : D:\TorrentTracker\21 [2008, BDRip-AVC 720p H.264] by #Maksadjon_17.mkv
Format : Matroska
Format version : Version 4
File size : 3.11 GiB
Duration : 2 h 2 min
Overall bit rate : 3 631 kb/s
Encoded date : UTC 2020-05-26 04:23:25
Writing application : mkvmerge v38.0.0 ('The Silent Type') 64-bit
Writing library : libebml v1.3.9 + libmatroska v1.5.2
Video
ID : 1
Format : AVC
Format/Info : Advanced Video Codec
Format profile : High@L4
Format settings : CABAC / 9 Ref Frames
Format settings, CABAC : Yes
Format settings, Reference frames : 9 frames
Codec ID : V_MPEG4/ISO/AVC
Duration : 2 h 2 min
Bit rate : 2 607 kb/s
Width : 1 280 pixels
Height : 528 pixels
Display aspect ratio : 2.40:1
Frame rate mode : Constant
Frame rate : 23.976 FPS
Color space : YUV
Chroma subsampling : 4:2:0
Bit depth : 8 bits
Scan type : Progressive
Bits/(Pixel*Frame) : 0.161
Stream size : 2.23 GiB (72%)
Writing library : x264 core 80 r1376M 3feaec2
Encoding settings : cabac=1 / ref=9 / deblock=1:-2:-1 / analyse=0x3:0x113 / me=umh / subme=9 / psy=1 / psy_rd=1.0:0.1 / mixed_ref=0 / me_range=24 / chroma_me=1 / trellis=2 / 8x8dct=1 / cqm=0 / deadzone=21,11 / fast_pskip=0 / chroma_qp_offset=-3 / threads=3 / sliced_threads=0 / nr=1 / decimate=0 / mbaff=0 / constrained_intra=0 / bframes=9 / b_pyramid=0 / b_adapt=2 / b_bias=0 / direct=1 / wpredb=0 / wpredp=0 / keyint=250 / keyint_min=25 / scenecut=40 / rc_lookahead=60 / rc=2pass / mbtree=1 / bitrate=2607 / ratetol=1.0 / qcomp=0.60 / qpmin=10 / qpmax=51 / qpstep=4 / cplxblur=20.0 / qblur=0.5 / ip_ratio=1.40 / aq=1:1.00
Language : English
Default : No
Forced : No
Audio #1
ID : 2
Format : AAC LC
Format/Info : Advanced Audio Codec Low Complexity
Codec ID : A_AAC-2
Duration : 2 h 2 min
Bit rate : 253 kb/s
Channel(s) : 2 channels
Channel layout : L R
Sampling rate : 48.0 kHz
Frame rate : 46.875 FPS (1024 SPF)
Compression mode : Lossy
Stream size : 222 MiB (7%)
Title : Uzbek
Language : Uzbek
Default : Yes
Forced : Yes
Audio #2
ID : 3
Format : AC-3
Format/Info : Audio Coding 3
Commercial name : Dolby Digital
Codec ID : A_AC3
Duration : 2 h 2 min
Bit rate mode : Constant
Bit rate : 384 kb/s
Channel(s) : 6 channels
Channel layout : L R C LFE Ls Rs
Sampling rate : 48.0 kHz
Frame rate : 31.250 FPS (1536 SPF)
Compression mode : Lossy
Stream size : 337 MiB (11%)
Service kind : Complete Main
Default : No
Forced : No
Audio #3
ID : 4
Format : AC-3
Format/Info : Audio Coding 3
Commercial name : Dolby Digital
Codec ID : A_AC3
Duration : 2 h 2 min
Bit rate mode : Constant
Bit rate : 384 kb/s
Channel(s) : 6 channels
Channel layout : L R C LFE Ls Rs
Sampling rate : 48.0 kHz
Frame rate : 31.250 FPS (1536 SPF)
Compression mode : Lossy
Stream size : 337 MiB (11%)
Service kind : Complete Main
Default : No
Forced : No
Text #1
ID : 5
Format : UTF-8
Codec ID : S_TEXT/UTF8
Codec ID/Info : UTF-8 Plain Text
Duration : 1 h 58 min
Bit rate : 93 b/s
Count of elements : 1452
Stream size : 81.4 KiB (0%)
Default : Yes
Forced : No
Text #2
ID : 6
Format : UTF-8
Codec ID : S_TEXT/UTF8
Codec ID/Info : UTF-8 Plain Text
Duration : 1 h 57 min
Bit rate : 62 b/s
Count of elements : 1440
Stream size : 53.9 KiB (0%)
Default : No
Forced : No

Lavhalar

Profil ShX

Lock

Jins:
Yigit
Staj:
1 yil 9 oy
Xabarlar:
73

Qayerdan: Namangan

Taqiq:

Hapa bo'lmang ovoz yaxshi tushmagan

Mavzu yaratish 26-May-2020 15:37 (5 soat o‘tgach)

Iqitibos

Profil ShX

#Maksadjon_17 ®

Jins:
Yigit
Staj:
11 oy 15 kun
Xabarlar:
35

Qayerdan: Namangan, Chartak

Taqiq:

Lock, Yo'g'e aka nimaga hafa bo'laman, xursand bo'ldim befarq qaramaganingizga, endi o'rganyammanda, shunaqa aytib turing xato kamchiliklarni. Sekin sekin to'g'rilaymiz xatolardan xulosa chiqarib. fps da kamchilik bubdida. Dublyajdayam sal kamchilik bor shekilli orqa fonda inglizcha ovoz qop ketgan ekan.

Mavzu yaratish 28-May-2020 11:57 (1 kun 20 soat o‘tgach)

Iqitibos

Profil ShX
Xabarlarni ko‘rsatish:    

Hozirgi vaqt: 14-Iyul 12:21

Vaqtlar farqi: UTC + 5



Siz mavzu yaratishingiz mumkin emas
Siz xabarlarga javob qaytarishingiz mumkin emas
Siz o‘z xabarlaringizni tahrirlashingiz mumkin emas
Siz o‘z xabarlaringizni o‘chirishingiz mumkin emas
Siz so‘rovlarda ovoz berishingiz mumkin emas
Siz xabalarga fayllarni biriktirishingiz mumkin emas
Siz fayllarni ko‘chirishingiz mumkin emas