˂
˃
Tarqatmalar statistikasi
Ko‘chirib bo‘ldim: [ 9 ]
 
     
 
 

Ahmadullo ®

Jins:
Yigit
Staj:
7 oy 9 kun
Xabarlar:
72
Taqiq:

Ajdodlar chorlovi / Зов предков / The Call of the Wild
Chiqqan yili: 2020
Davlat: AQSH
Janr: Drama, sarguzasht, oilaviy
Davomiyligi: 01:39:42
Tarjima: Professional (Ko'p ovozli) O'zbek tilida
Tarjima 2: Professional (Original) Ingliz tilida
Rejissyor: Kris Sanders
Rollarda: Harrison Ford, Omar Dengizi, Kara Gay, Dan Stivens, Bredli Uitford, Gen Lui Kelli, Maykl Ot, Karen Gillan, Kolin Vudell, Mika Fitsjerald-Tavsif: 1880-yillarda Kaliforniyadagi uyi buzib tashlandi, yovvoyi va sovuq Alyaskaga olib borganida, ko'plab qiyinchiliklarga duch keladi. Pochta xizmati jamoasiga yangi kelgan va keyinchalik yetakchi bo'lgan Bak aql bovar qilmaydigan sarguzashtlarga duch keladi, dunyoda o'z o'rnini topadi va o'z hayotining yorqin lahzalarini o'tkazadi-Videoning sifati: Blu-Ray Rip
Video format: MKV
Video: HVC1 1920x808 23.976fps
Audio: O'zbek tilida (AAC, 2 ch, 128 Kbit/s)
Audio 2: Ingliz tilida (AAC, 8 ch, 299 Kbit/s)-Subtitrlar: Ingliz tilida

Media Info

General
Unique ID : 148026442219415811921476088188660500458 (0x6F5CDB134B2DBA8F36D019E5D98247EA)
Complete name : K:\MEDIA\HD MOVIES\TARJIMA HD x264 x265\2019-2020\Ajdodlar.chorlovi.2020.1080p.10bit.BluRay.8CH.x265.mkv
Format : Matroska
Format version : Version 4
File size : 1.93 GiB
Duration : 1 h 39 min
Overall bit rate : 2 775 kb/s
Movie name : PSArips.com | The.Call.of.the.Wild.2020.1080p.10bit.BluRay.8CH.x265.HEVC-PSA
Encoded date : UTC 2020-05-16 15:52:44
Writing application : mkvmerge v21.0.0 ('Tardigrades Will Inherit The Earth') 64-bit
Writing library : libebml v1.3.5 + libmatroska v1.4.8
Video
ID : 1
Format : HEVC
Format/Info : High Efficiency Video Coding
Format profile : Main 10@L4@Main
Codec ID : V_MPEGH/ISO/HEVC
Duration : 1 h 39 min
Bit rate : 2 278 kb/s
Width : 1 920 pixels
Height : 808 pixels
Display aspect ratio : 2.40:1
Frame rate mode : Constant
Frame rate : 23.976 (24000/1001) FPS
Color space : YUV
Chroma subsampling : 4:2:0
Bit depth : 10 bits
Bits/(Pixel*Frame) : 0.061
Stream size : 1.59 GiB (82%)
Default : Yes
Forced : No
Audio #1
ID : 2
Format : AAC LC
Format/Info : Advanced Audio Codec Low Complexity
Codec ID : A_AAC-2
Duration : 1 h 39 min
Bit rate : 192 kb/s
Channel(s) : 2 channels
Channel layout : L R
Sampling rate : 44.1 kHz
Frame rate : 43.066 FPS (1024 SPF)
Compression mode : Lossy
Stream size : 139 MiB (7%)
Title : uzb by MuhammadAhmad
Language : Uzbek
Default : Yes
Forced : Yes
Audio #2
ID : 3
Format : AAC LC SBR
Format/Info : Advanced Audio Codec Low Complexity with Spectral Band Replication
Commercial name : HE-AAC
Format settings : Explicit
Codec ID : A_AAC-2
Duration : 1 h 39 min
Bit rate : 299 kb/s
Channel(s) : 7 channels
Channel(s)_Original : 8 channels
Channel layout : C L R Ls Rs Lb Rb LFE
Sampling rate : 48.0 kHz
Frame rate : 23.438 FPS (2048 SPF)
Compression mode : Lossy
Delay relative to video : 31 ms
Stream size : 214 MiB (11%)
Title : english
Default : No
Forced : No
Text #1
ID : 4
Format : UTF-8
Codec ID : S_TEXT/UTF8
Codec ID/Info : UTF-8 Plain Text
Duration : 20 s 24 ms
Bit rate : 25 b/s
Count of elements : 2
Stream size : 64.0 Bytes (0%)
Language : Russian
Default : Yes
Forced : Yes
Text #2
ID : 5
Format : UTF-8
Codec ID : S_TEXT/UTF8
Codec ID/Info : UTF-8 Plain Text
Duration : 1 h 34 min
Bit rate : 25 b/s
Count of elements : 846
Stream size : 17.8 KiB (0%)
Title : English-SRT
Language : English
Default : No
Forced : No
Menu
00:00:00.000 : en:Chapter 01
00:03:35.882 : en:Chapter 02
00:05:58.608 : en:Chapter 03
00:10:31.339 : en:Chapter 04
00:15:49.698 : en:Chapter 05
00:19:03.851 : en:Chapter 06
00:23:29.533 : en:Chapter 07
00:27:28.355 : en:Chapter 08
00:32:27.820 : en:Chapter 09
00:34:32.528 : en:Chapter 10
00:41:43.792 : en:Chapter 11
00:46:14.521 : en:Chapter 12
00:50:07.337 : en:Chapter 13
00:55:15.562 : en:Chapter 14
01:00:30.918 : en:Chapter 15
01:04:04.632 : en:Chapter 16
01:07:46.979 : en:Chapter 17
01:12:38.562 : en:Chapter 18
01:17:03.035 : en:Chapter 19
01:19:25.218 : en:Chapter 20
01:23:07.107 : en:Chapter 21
01:26:21.217 : en:Chapter 22
01:29:26.194 : en:Chapter 23
01:32:22.453 : en:Chapter 24

Lavhalar

Profil ShX

MRLG

Jins:
Yigit
Staj:
2 yil 9 oy
Xabarlar:
643
Taqiq:

Ahmadullo, Muqovada boshqa sayt manzili ko'rsatilgan. Bu treker qoidalariga zid.

Mavzu yaratish 19-May-2020 11:46 (5 soat o‘tgach)

Iqitibos

Profil ShX
Xabarlarni ko‘rsatish:    

Hozirgi vaqt: 01-Iyun 21:07

Vaqtlar farqi: UTC + 5



Siz mavzu yaratishingiz mumkin emas
Siz xabarlarga javob qaytarishingiz mumkin emas
Siz o‘z xabarlaringizni tahrirlashingiz mumkin emas
Siz o‘z xabarlaringizni o‘chirishingiz mumkin emas
Siz so‘rovlarda ovoz berishingiz mumkin emas
Siz xabalarga fayllarni biriktirishingiz mumkin emas
Siz fayllarni ko‘chirishingiz mumkin emas