˂
˃
Tarqatmalar statistikasi
Ko‘chirmoqdaman: [ 1 ]
Ko‘chirib bo‘ldim: [ 5 ]
 
     
 
 

Ahmadullo ®

Jins:
Yigit
Staj:
7 oy 9 kun
Xabarlar:
72
Taqiq:

Chennai Ekspressi / Chennai Express
--Chiqqan yili: 2013
Davlat: Hindiston
Janr: Jinoyat,drama,detektiv
Davomiyligi: 02:21:19
Tarjima: Professional O'zbek tilida
Tarjima 2: Professional (Original) Hind tilida--Rejissyor: Rohit Shetty--Rollarda: Shoh Rux Xon, Deepika Padukon, Priyamani, Satyaraj, Manorama, Nikitin Dir-Film Haqida: Qahramon Mumbay kino poytaxtidan Ramesvaramga sayohat qiladi. Ushbu sayohat paytida u bilan haqiqiy sarguzashtlar ro'y beradi. Aynan o'sha paytda u bir yosh qiz bilan uchrashib qoladi ... Kutilmagan voqealar aynan shu vaqtdan sodir bo'la boshlaydi...--Videoning sifati: Blu-RayRip 1080p
Video format: MKV-Video: MPEG4 Video (H264) 1920x816 24fps
Audio: AAC 44000Hz stereo O'zbek tili
Audio 2: AAC 48000Hz 5.1kanal Hind tili
Subtitrlar: Ingliz tilida --

Media Info

General
Unique ID : 84748313905965238764075626281187584443 (0x3FC1EE79FB249982068A64C08E0EA9BB)
Complete name : K:\MEDIA\HD MOVIES\TARJIMA HD x264 x265\2019-2020\Chennai.Ekspressi.2013.1080p.BluRay.x264.mkv
Format : Matroska
Format version : Version 4
File size : 2.80 GiB
Duration : 2 h 21 min
Overall bit rate : 2 832 kb/s
Encoded date : UTC 2020-05-15 00:44:26
Writing application : mkvmerge v21.0.0 ('Tardigrades Will Inherit The Earth') 64-bit
Writing library : libebml v1.3.5 + libmatroska v1.4.8
Video
ID : 1
Format : AVC
Format/Info : Advanced Video Codec
Format profile : High@L4.1
Format settings : CABAC / 4 Ref Frames
Format settings, CABAC : Yes
Format settings, Reference fra : 4 frames
Codec ID : V_MPEG4/ISO/AVC
Duration : 2 h 21 min
Bit rate : 2 250 kb/s
Width : 1 920 pixels
Height : 816 pixels
Display aspect ratio : 2.35:1
Frame rate mode : Constant
Frame rate : 24.000 FPS
Color space : YUV
Chroma subsampling : 4:2:0
Bit depth : 8 bits
Scan type : Progressive
Bits/(Pixel*Frame) : 0.060
Stream size : 2.22 GiB (79%)
Writing library : x264 core 158
Encoding settings : cabac=1 / ref=4 / deblock=1:-1:-1 / analyse=0x3:0x133 / me=umh / subme=9 / psy=1 / psy_rd=1.00:0.15 / mixed_ref=1 / me_range=24 / chroma_me=1 / trellis=2 / 8x8dct=1 / cqm=0 / deadzone=21,11 / fast_pskip=0 / chroma_qp_offset=-3 / threads=18 / lookahead_threads=1 / sliced_threads=0 / nr=0 / decimate=1 / interlaced=0 / bluray_compat=0 / constrained_intra=0 / bframes=3 / b_pyramid=2 / b_adapt=2 / b_bias=0 / direct=3 / weightb=1 / open_gop=0 / weightp=2 / keyint=250 / keyint_min=23 / scenecut=40 / intra_refresh=0 / rc_lookahead=60 / rc=2pass / mbtree=1 / bitrate=2250 / ratetol=1.0 / qcomp=0.60 / qpmin=0 / qpmax=69 / qpstep=4 / cplxblur=20.0 / qblur=0.5 / vbv_maxrate=31250 / vbv_bufsize=31250 / nal_hrd=none / filler=0 / ip_ratio=1.40 / aq=1:1.00
Default : Yes
Forced : No
Audio #1
ID : 2
Format : AAC LC
Format/Info : Advanced Audio Codec Low Complexity
Codec ID : A_AAC-2
Duration : 2 h 21 min
Bit rate : 192 kb/s
Channel(s) : 2 channels
Channel layout : L R
Sampling rate : 44.1 kHz
Frame rate : 43.066 FPS (1024 SPF)
Compression mode : Lossy
Delay relative to video : -43 ms
Stream size : 197 MiB (7%)
Title : uzb by MuhammadAhmad
Language : Uzbek
Default : Yes
Forced : Yes
Audio #2
ID : 3
Format : AAC LC
Format/Info : Advanced Audio Codec Low Complexity
Codec ID : A_AAC-2
Duration : 2 h 21 min
Bit rate : 384 kb/s
Channel(s) : 6 channels
Channel layout : C L R Ls Rs LFE
Sampling rate : 48.0 kHz
Frame rate : 46.875 FPS (1024 SPF)
Compression mode : Lossy
Delay relative to video : -43 ms
Stream size : 388 MiB (14%)
Title : indian
Default : No
Forced : No
Text #1
ID : 4
Format : UTF-8
Codec ID : S_TEXT/UTF8
Codec ID/Info : UTF-8 Plain Text
Duration : 20 s 24 ms
Bit rate : 25 b/s
Count of elements : 2
Stream size : 64.0 Bytes (0%)
Title : uzb by MuhammadAhmad
Language : Uzbek
Default : Yes
Forced : Yes
Text #2
ID : 5
Format : UTF-8
Codec ID : S_TEXT/UTF8
Codec ID/Info : UTF-8 Plain Text
Duration : 2 h 17 min
Bit rate : 52 b/s
Count of elements : 1674
Stream size : 52.4 KiB (0%)
Title : english
Default : No
Forced : No
LAVHALAR
Profil ShX

MRLG

Jins:
Yigit
Staj:
2 yil 9 oy
Xabarlar:
643
Taqiq:

Ahmadullo, Muqovada boshqa sayt manzili ko'rsatilgan. Bu treker qoidalariga zid.

Mavzu yaratish 19-May-2020 11:45 (5 soat o‘tgach)

Iqitibos

Profil ShX
Xabarlarni ko‘rsatish:    

Hozirgi vaqt: 01-Iyun 20:03

Vaqtlar farqi: UTC + 5



Siz mavzu yaratishingiz mumkin emas
Siz xabarlarga javob qaytarishingiz mumkin emas
Siz o‘z xabarlaringizni tahrirlashingiz mumkin emas
Siz o‘z xabarlaringizni o‘chirishingiz mumkin emas
Siz so‘rovlarda ovoz berishingiz mumkin emas
Siz xabalarga fayllarni biriktirishingiz mumkin emas
Siz fayllarni ko‘chirishingiz mumkin emas