˂
˃
Tarqatmalar statistikasi
Ko‘chirmoqdaman: [ 6 ]
Ko‘chirib bo‘ldim: [ 9 ]
 
     
 
 

AxeL ®

Jins:
Yigit
Staj:
2 yil 2 oy
Xabarlar:
774

Qayerdan: Gronland, Norway

Taqiq:

-Bladshot / Бладшот / Bloodshot- Chiqqan yili: 2020
Davlat: AQSh, Xitoy
Janr: fantastika, jangari
Davomiyligi: 01:49:20
Tarjima:
    Rus tilida
    O'zbek tilida
-Rejissyor: Deyv Uilson / Дейв Уилсон-Rollarda: Vin Dizel, Gay Morris, Eysa Gonsales, Sem Hyuen, Siddxarth Dhanandjay, Talula Rayli, Tobi Kebbel, Yoxannes Hyoeykyur, Youhannesson, Aleks Ernandez
Ssenariy: Jeff Uodlov, Erik Xaysseres, Kevin Vanxuk,...
Prodyuser: Tobi Jaffe, Nil X. Moritz, Dinesh Shamdasani,...
Operator: Jak Juffre
Kompozitor: Stiv Yablonski
Rassom: Tom Braun, Grem Kovi, Saymon Lamont,...
Montaj: Jim Mey-Tavsif: Harbiy Rey Xarrison boshqa issiq joydan sevimli go'zal xotiniga qaytmoqda. Er-xotinlar ta'tillarini Evropada o'tkazadilar, ammo baxt uzoqqa cho'zilmaydi - terrorchilar Reydan kerakli ma'lumotlarni ololmay, o'z xotinini va keyin o'zini o'ldirishadi. Ammo tez orada RST korporatsiyasi uni hayotga qaytaradi. Qondagi nanorobotlarning armiyasi Reyni o'lmas qon tomchisiga aylantirdi va endi askarga juda katta kuch va tezda o'z-o'zini davolash qobiliyati berilgan, faqat xotirada qolishni istaydigan narsa qoladi. Ammo tez orada uning hayotining so'nggi lahzalari xotiralari qaytmoqda va qonli surat xotinining o'limi uchun qasos olishga ketmoqda.-Кинопоиск: 5.636 (30 564)
IMDb: 5.70 (37 088)-Sifat: WEBRip 720p HEVC 10 bit
Format: MKV
Video: HVC1 1280x536 23.976fps 974 Kbps
Audio: AAC 44100Hz stereo 196 Kbps O'zbek tilida-

Media Info

General
Unique ID                      : 62399347941355384758793362540878548693 (0x2EF1AD61A2AFDA84343DAC286842CED5)
Complete name                  : D:\Video Files\Tarjima\HD Video\Bloodshot 2020 UZB WEBRip 720p HEVC 10bit.mkv
Format                         : Matroska
Format version                 : Version 4 / Version 2
File size                      : 917 MiB
Duration                       : 1h 49mn
Overall bit rate               : 1 172 Kbps
Movie name                     : Bloodshot 2020 WEBRip 720p HEVC 10bit.Alltor.mkv
Encoded date                   : UTC 2080-04-05 02:21:56
Writing application            : mkvmerge v22.0.0 ('At The End Of The World') 64-bit
Writing library                : libebml v1.3.5 + libmatroska v1.4.8
Video
ID                             : 1
Format                         : HEVC
Format/Info                    : High Efficiency Video Coding
Format profile                 : Main 10@L3.1@Main
Codec ID                       : V_MPEGH/ISO/HEVC
Duration                       : 1h 49mn
Bit rate                       : 974 Kbps
Width                          : 1 280 pixels
Height                         : 536 pixels
Display aspect ratio           : 2.40:1
Frame rate mode                : Constant
Frame rate                     : 23.976 (24000/1001) fps
Color space                    : YUV
Chroma subsampling             : 4:2:0
Bit depth                      : 10 bits
Bits/(Pixel*Frame)             : 0.059
Stream size                    : 761 MiB (83%)
Writing library                : x265 3.2+9-971180b100f8:[Windows][GCC 9.2.0][64 bit] 10bit
Encoding settings              : cpuid=1111039 / frame-threads=5 / numa-pools=32 / wpp / no-pmode / no-pme / no-psnr / no-ssim / log-level=2 / input-csp=1 / input-res=1280x536 / interlace=0 / total-frames=157284 / level-idc=0 / high-tier=1 / uhd-bd=0 / ref=2 / no-allow-non-conformance / no-repeat-headers / annexb / no-aud / no-hrd / info / hash=0 / no-temporal-layers / open-gop / min-keyint=23 / keyint=250 / gop-lookahead=0 / bframes=4 / b-adapt=0 / b-pyramid / bframe-bias=0 / rc-lookahead=15 / lookahead-slices=0 / scenecut=40 / radl=0 / no-splice / no-intra-refresh / ctu=64 / min-cu-size=8 / no-rect / no-amp / max-tu-size=32 / tu-inter-depth=1 / tu-intra-depth=1 / limit-tu=0 / rdoq-level=0 / dynamic-rd=0.00 / no-ssim-rd / signhide / no-tskip / nr-intra=0 / nr-inter=0 / no-constrained-intra / strong-intra-smoothing / max-merge=2 / limit-refs=3 / no-limit-modes / me=1 / subme=2 / merange=57 / temporal-mvp / no-frame-dup / no-hme / weightp / no-weightb / no-analyze-src-pics / deblock=0:0 / sao / no-sao-non-deblock / rd=2 / selective-sao=4 / early-skip / rskip / fast-intra / no-tskip-fast / no-cu-lossless / no-b-intra / no-splitrd-skip / rdpenalty=0 / psy-rd=2.00 / psy-rdoq=0.00 / no-rd-refine / no-lossless / cbqpoffs=0 / crqpoffs=0 / rc=abr / bitrate=973 / qcomp=0.60 / qpstep=4 / stats-write=0 / stats-read=2 / cplxblur=20.0 / qblur=0.5 / ipratio=1.40 / pbratio=1.30 / aq-mode=2 / aq-strength=1.00 / cutree / zone-count=0 / no-strict-cbr / qg-size=32 / no-rc-grain / qpmax=69 / qpmin=0 / no-const-vbv / sar=0 / overscan=0 / videoformat=5 / range=0 / colorprim=1 / transfer=1 / colormatrix=1 / chromaloc=0 / display-window=0 / cll=0,0 / min-luma=0 / max-luma=1023 / log2-max-poc-lsb=8 / vui-timing-info / vui-hrd-info / slices=1 / no-opt-qp-pps / no-opt-ref-list-length-pps / no-multi-pass-opt-rps / scenecut-bias=0.05 / no-opt-cu-delta-qp / no-aq-motion / no-hdr / no-hdr-opt / no-dhdr10-opt / no-idr-recovery-sei / analysis-reuse-level=5 / scale-factor=0 / refine-intra=0 / refine-inter=0 / refine-mv=1 / refine-ctu-distortion=0 / no-limit-sao / ctu-info=0 / no-lowpass-dct / refine-analysis-type=0 / copy-pic=1 / max-ausize-factor=1.0 / no-dynamic-refine / no-single-sei / no-hevc-aq / no-svt / no-field / qp-adaptation-range=1.00
Default                        : Yes
Forced                         : No
Color range                    : Limited
Color primaries                : BT.709
Transfer characteristics       : BT.709
Matrix coefficients            : BT.709
Audio
ID                             : 7
Format                         : AAC
Format/Info                    : Advanced Audio Codec
Format profile                 : LC
Codec ID                       : A_AAC
Duration                       : 1h 49mn
Bit rate                       : 196 Kbps
Channel(s)                     : 2 channels
Channel positions              : Front: L R
Sampling rate                  : 44.1 KHz
Frame rate                     : 43.066 fps (1024 spf)
Compression mode               : Lossy
Stream size                    : 153 MiB (17%)
Title                          : O'zbek tilida (DUB) AxeL
Language                       : Uzbek
Default                        : Yes
Forced                         : No
Text #1
ID                             : 2
Format                         : UTF-8
Codec ID                       : S_TEXT/UTF8
Codec ID/Info                  : UTF-8 Plain Text
Duration                       : 1h 47mn
Bit rate                       : 0 bps
Count of elements              : 10
Stream size                    : 400 Bytes (0%)
Title                          : Forced
Language                       : Russian
Default                        : No
Forced                         : Yes
Text #2
ID                             : 3
Format                         : UTF-8
Codec ID                       : S_TEXT/UTF8
Codec ID/Info                  : UTF-8 Plain Text
Duration                       : 1h 36mn
Bit rate                       : 2 bps
Count of elements              : 50
Stream size                    : 2.06 KiB (0%)
Title                          : Forced
Language                       : Russian
Default                        : No
Forced                         : No
Text #3
ID                             : 4
Format                         : UTF-8
Codec ID                       : S_TEXT/UTF8
Codec ID/Info                  : UTF-8 Plain Text
Duration                       : 1h 41mn
Bit rate                       : 77 bps
Count of elements              : 1071
Stream size                    : 57.7 KiB (0%)
Title                          : Full
Language                       : Russian
Default                        : No
Forced                         : No
Text #4
ID                             : 5
Format                         : UTF-8
Codec ID                       : S_TEXT/UTF8
Codec ID/Info                  : UTF-8 Plain Text
Duration                       : 1h 41mn
Bit rate                       : 46 bps
Count of elements              : 1150
Stream size                    : 34.9 KiB (0%)
Title                          : Full
Language                       : English
Default                        : No
Forced                         : No
Text #5
ID                             : 6
Format                         : UTF-8
Codec ID                       : S_TEXT/UTF8
Codec ID/Info                  : UTF-8 Plain Text
Duration                       : 1h 47mn
Bit rate                       : 51 bps
Count of elements              : 1493
Stream size                    : 40.6 KiB (0%)
Title                          : SDH
Language                       : English
Default                        : No
Forced                         : No


FILMDAN LAVHALAR
Profil ShX
Xabarlarni ko‘rsatish:    

Hozirgi vaqt: 04-Iyun 03:26

Vaqtlar farqi: UTC + 5



Siz mavzu yaratishingiz mumkin emas
Siz xabarlarga javob qaytarishingiz mumkin emas
Siz o‘z xabarlaringizni tahrirlashingiz mumkin emas
Siz o‘z xabarlaringizni o‘chirishingiz mumkin emas
Siz so‘rovlarda ovoz berishingiz mumkin emas
Siz xabalarga fayllarni biriktirishingiz mumkin emas
Siz fayllarni ko‘chirishingiz mumkin emas