˂
˃
Tarqatmalar statistikasi
Ko‘chirmoqdaman: [ 1 ]
Ko‘chirib bo‘ldim: [ 8 ]
 
     
 
 

#Maksadjon_17 ®

Jins:
Yigit
Staj:
10 oy 3 kun
Xabarlar:
19

Qayerdan: Namangan, Chartak

Taqiq:

Biz kelajakdanmiz 2 | Мы из будущего 2 [2010, Fantastika, jangovar, sarguzasht, harbiy, tarix, BDRip 1080p] O'zbek va Rus tillarida by #Maksadjon_17
--Chiqqan yili: 2010
Davlat: Rossiya
Janr: Fantastika, jangari, sarguzasht, harbiy, tarix
Davomiyligi: 01:41:28
Tarjima: Professional (dublyaj qilingan) | Uzbek tilida My5 TV
Tarjima 2: Professional (dublyaj qilingan) | Original-Rejissyor: Aleksandr Samoxvalov, Boris Rostov-Rollarda: Igor Petrenko, Ekaterina Klimova, Vladimir Yaglych, Aleksey Barabash, Dmitriy Stupka, Ivan Krasko, Dmitriy Dyachuk, Vladislav Reznik, Semyon Belotserkovskiy, Denis Karasev ...-Tavsif: Ular "harbiy tadbirlarni qayta qurish" maydonida uchrashishdi va urush o'ynashni xohlashdi. Ammo urush ular bilan o'ynashga qaror qildi ...-Videoning sifati: BDRip
Video format: MKV
Video: H.264, 1920x808, 5776 Kbps, 23.976 fps
Audio: AAC, 2 ch, 48 kHz, 256 kpbs Uzbek tili
Audio 2: AC-3, 6 ch, 48 kHz, 384 kpbs Russian
Subtitrlar: mavjud emas-

Media Info

General
Unique ID : 179885824556999119491876677802581238179 (0x8754BFE657E8FFF5A26EBAB4BD7F21A3)
Complete name : D:\TorrentTracker\Biz kelajakdanmiz 2 [2010, BDRip 1080p] by #Maksadjon_17.mkv
Format : Matroska
Format version : Version 4
File size : 4.54 GiB
Duration : 1 h 41 min
Overall bit rate : 6 403 kb/s
Movie name : Мы из будущего 2 (2010)BDRip 1080p от Dimok
Encoded date : UTC 2020-05-13 14:47:16
Writing application : mkvmerge v38.0.0 ('The Silent Type') 64-bit
Writing library : libebml v1.3.9 + libmatroska v1.5.2
Video
ID : 1
Format : AVC
Format/Info : Advanced Video Codec
Format profile : High@L4.1
Format settings : CABAC / 5 Ref Frames
Format settings, CABAC : Yes
Format settings, Reference frames : 5 frames
Codec ID : V_MPEG4/ISO/AVC
Duration : 1 h 41 min
Bit rate : 5 776 kb/s
Width : 1 920 pixels
Height : 808 pixels
Display aspect ratio : 2.40:1
Frame rate mode : Constant
Frame rate : 23.976 (24000/1001) FPS
Color space : YUV
Chroma subsampling : 4:2:0
Bit depth : 8 bits
Scan type : Progressive
Bits/(Pixel*Frame) : 0.155
Stream size : 4.08 GiB (90%)
Writing library : x264 core 92 r1510 33d382a
Encoding settings : cabac=1 / ref=5 / deblock=1:0:0 / analyse=0x3:0x133 / me=umh / subme=10 / psy=1 / psy_rd=1.00:0.10 / mixed_ref=1 / me_range=32 / chroma_me=1 / trellis=2 / 8x8dct=1 / cqm=0 / deadzone=21,11 / fast_pskip=0 / chroma_qp_offset=-3 / threads=6 / sliced_threads=0 / nr=0 / decimate=1 / interlaced=0 / constrained_intra=0 / bframes=6 / b_pyramid=2 / b_adapt=2 / b_bias=0 / direct=3 / wpredb=1 / wpredp=2 / keyint=240 / keyint_min=24 / scenecut=40 / intra_refresh=0 / rc_lookahead=60 / rc=2pass / mbtree=1 / bitrate=5776 / ratetol=1.0 / qcomp=0.60 / qpmin=10 / qpmax=51 / qpstep=4 / cplxblur=20.0 / qblur=0.5 / ip_ratio=1.40 / aq=1:1.00
Language : Russian
Default : Yes
Forced : No
Audio #1
ID : 2
Format : AAC LC
Format/Info : Advanced Audio Codec Low Complexity
Codec ID : A_AAC-2
Duration : 1 h 41 min
Bit rate : 253 kb/s
Channel(s) : 2 channels
Channel layout : L R
Sampling rate : 48.0 kHz
Frame rate : 46.875 FPS (1024 SPF)
Compression mode : Lossy
Stream size : 184 MiB (4%)
Title : Uzbek
Language : Uzbek
Default : Yes
Forced : Yes
Audio #2
ID : 3
Format : AC-3
Format/Info : Audio Coding 3
Commercial name : Dolby Digital
Codec ID : A_AC3
Duration : 1 h 41 min
Bit rate mode : Constant
Bit rate : 384 kb/s
Channel(s) : 6 channels
Channel layout : L R C LFE Ls Rs
Sampling rate : 48.0 kHz
Frame rate : 31.250 FPS (1536 SPF)
Compression mode : Lossy
Stream size : 279 MiB (6%)
Title : Оригинал
Language : Russian
Service kind : Complete Main
Default : No
Forced : No

Lavhalar

Profil ShX
Xabarlarni ko‘rsatish:    

Hozirgi vaqt: 01-Iyun 21:09

Vaqtlar farqi: UTC + 5



Siz mavzu yaratishingiz mumkin emas
Siz xabarlarga javob qaytarishingiz mumkin emas
Siz o‘z xabarlaringizni tahrirlashingiz mumkin emas
Siz o‘z xabarlaringizni o‘chirishingiz mumkin emas
Siz so‘rovlarda ovoz berishingiz mumkin emas
Siz xabalarga fayllarni biriktirishingiz mumkin emas
Siz fayllarni ko‘chirishingiz mumkin emas