˂
˃
Tarqatmalar statistikasi
Ko‘chirmoqdaman: [ 12 ]
Ko‘chirib bo‘ldim: [ 1 ]
 
     
 
 

Ahmadullo ®

Jins:
Yigit
Staj:
7 oy 11 kun
Xabarlar:
72
Taqiq:

Olamga Nur Sochgan Oy / Луна рода Хашим / Qamar bani Hashem
--Chiqqan yili: 2008
Davlat: Sudan, Suriya, Livan
Janr: Tarixiy, Biografiya, Islomiy
Davomiyligi: 40-45 daqiqa.
Tarjima: Professional [Sevimli TV] O'zbek tilida
Tarjima 2: Professional (Original) Arab tilida--Rejissyor: Muhammad Shayx Najin--Rollarda: Rashid Asaf, Basam Yahur, Asad Fadde, Najaf Safakuniy, Taysir Idris, Zohir Ramazon, Abdul Hakim Katrifan, Ali Karim, Jihod Abdah, Xalad Kiisha, Muhammad Hadaxiy, Mahmud Nasr, Anjad Al-Hasiyin, Farud Al-Jamaad, Narvon Abu- Hashin, Vasif Al-Halbiy, Nasrin Hakim, Makiy Sanad, Muhammad Abdurahim Karniy, Yosir Abdulatif, Umar Shaliak, Jihod Alandri, Alean Al-Zardif, Akif Najn, Abdelkarim Al-Aquasari, Muhammad Al-Abadi--Film Haqida: "Olamga Nur Sochgan Oy" - Hayot haqida ko'p qirrali badiiy film va Payg'ambar Muhammad (s.a.v) ning elchixonaning vakolati. Seriyada Payg'ambar (S.A.V.) ning bolaligida, tug'ilish atrofidagi mo''jizalar, yosh va yetuk yillar haqida, bashoratning boshiga qadar, batafsil bayon etilgan. Filmning asosiy qismi Payg'ambar Muhammad (s.a.v) ning va uning hamrohlarining da'vatiga va faoliyatiga bag'ishlangan.
Televizion seriyali tarixiy, Al-Azhar akademiyasi, Rossiya muftiylar kengashi, Checheniston va Dog'iston respublikalari tomonidan ma'qullangan.
2008 yilda film Muhammad alayhissalomga Allohning salovoti va salomi bo'lsin deb nomlangan eng yaxshi teleserial deb e'tirof etildi.--Videoning sifati: WEBrip 1080p,720p
Video format: MKV-Video: H264 Video 1920x1080 25fps 8 000 kb/s
Audio: AAC 44000Hz stereo O'zbek tili
Audio 2: AAC 48000Hz stereo Arab tili
Subtitrlar: - -Eslatma!
Eslatma!: Har bir qism qo'shilganida yangi torrent yaratiladi. Yangi qismlarni ko'chirib olish uchun foydalanuvchilar qilishi kerak bo'lgan amallar:
1. ko'chirishni to'xtatish,
2. torrent dasturingizdan eski torrentni o'chirib tashlash (eski qismlarni o'chirish shart emas),
3. yangi torrentni yuklash va o'z dasturingizda eskisini o'rniga yangi torrentni ishga tushirish, yangi qismlarni ko'chirish uchun dasturingizga eski saqlangan qismlar papkasi yo'lagini ko'rsatib o'tishingiz kerak bo'ladi.
Sizni dasturingiz shu vaqtda eski papkani tekshirishdan (хеширование) o'tkazishi kerak (agar tekshirish amalga oshmasa - unda o'zingiz yordam bering), va shunda sizda mavjud bo'lmagan qismlarni yuklab olish boshlanadi. Bunday holatda eski qismlar o'chib ketmaydi, tarqatishda davom etadi!
Agar siz eski qismlarni allaqachon o'chirib yuborgan bo`lsangiz, unda yangi torrent ishga tushirilgan vaqtda kerakli joylarga "галочка" qo'yib eski qismlarni ham qaytadan yuklashingiz mumkin. Iloji boricha eski qismlarni uzoq vaqt davomida o'chirmaslikka harakat qiling, chunki tarqatuvchi shaxs (релизёр) eski qismlarni tarqatishga emas, yangi qismlarni joylashga e'tiborini qaratishi kerak.--

Media Info

General
Unique ID : 47804656048065438573453654579246667016 (0x23F6D783E6D59194D9B3D075A04E1508)
Complete name : K:\MEDIA\HD MOVIES\TARJIMA HD x264 x265\Serial HD\Olamga nur sochgan oy\Olamga.nur.sochgan.oy.01m.01q.mkv
Format : Matroska
Format version : Version 4
File size : 2.90 GiB
Duration : 48 min 54 s
Overall bit rate : 8 494 kb/s
Encoded date : UTC 2020-05-02 01:06:36
Writing application : mkvmerge v21.0.0 ('Tardigrades Will Inherit The Earth') 64-bit
Writing library : libebml v1.3.5 + libmatroska v1.4.8
Video
ID : 1
Format : AVC
Format/Info : Advanced Video Codec
Format profile : High@L4
Format settings : CABAC / 3 Ref Frames
Format settings, CABAC : Yes
Format settings, Reference fra : 3 frames
Codec ID : V_MPEG4/ISO/AVC
Duration : 48 min 54 s
Bit rate mode : Constant
Bit rate : 8 000 kb/s
Width : 1 920 pixels
Height : 1 080 pixels
Display aspect ratio : 16:9
Frame rate mode : Constant
Frame rate : 25.000 FPS
Standard : PAL
Color space : YUV
Chroma subsampling : 4:2:0
Bit depth : 8 bits
Scan type : Progressive
Bits/(Pixel*Frame) : 0.154
Stream size : 2.73 GiB (94%)
Default : Yes
Forced : No
Color range : Limited
Color primaries : BT.709
Transfer characteristics : BT.709
Matrix coefficients : BT.709
Audio #1
ID : 2
Format : AAC LC
Format/Info : Advanced Audio Codec Low Complexity
Codec ID : A_AAC-2
Duration : 48 min 54 s
Bit rate : 180 kb/s
Channel(s) : 2 channels
Channel layout : L R
Sampling rate : 44.1 kHz
Frame rate : 43.066 FPS (1024 SPF)
Compression mode : Lossy
Delay relative to video : -40 ms
Stream size : 63.1 MiB (2%)
Title : uzb by MuhammadAhmad
Language : Uzbek
Default : Yes
Forced : Yes
Audio #2
ID : 3
Format : AAC LC
Format/Info : Advanced Audio Codec Low Complexity
Codec ID : A_AAC-2
Duration : 48 min 54 s
Bit rate : 317 kb/s
Channel(s) : 2 channels
Channel layout : L R
Sampling rate : 48.0 kHz
Frame rate : 46.875 FPS (1024 SPF)
Compression mode : Lossy
Delay relative to video : -40 ms
Stream size : 111 MiB (4%)
Title : arab
Default : No
Forced : No
Text
ID : 4
Format : UTF-8
Codec ID : S_TEXT/UTF8
Codec ID/Info : UTF-8 Plain Text
Duration : 20 s 24 ms
Bit rate : 25 b/s
Count of elements : 2
Stream size : 64.0 Bytes (0%)
Default : Yes
Forced : Yes
LAVHALAR


So‘ngi marta tahrirlandi: Ahmadullo (2020-05-17 04:23), Jami tahrirlangan 1 marta
Profil ShX

MRLG

Jins:
Yigit
Staj:
2 yil 9 oy
Xabarlar:
643
Taqiq:

Ahmadullo, Muqova juda ham katta. 600x500 pikseldan oshmasligi kerak.

Mavzu yaratish 02-May-2020 09:19 (2 soat 45 daqiqa o‘tgach)

Iqitibos

Profil ShX

Ahmadullo ®

Jins:
Yigit
Staj:
7 oy 11 kun
Xabarlar:
72
Taqiq:

MRLG, aha hop,

Mavzu yaratish 03-May-2020 18:55 (1 kun 9 soat o‘tgach)

Iqitibos

Profil ShX

Bestfriend

Jins:
Ko‘rsatilmagan
Staj:
10 oy 8 kun
Xabarlar:
13
Taqiq:

barcha qisimlarmi adashmasam 30 qisim emasmidi

Mavzu yaratish 18-May-2020 09:38 (14 kun o‘tgach)

Iqitibos

Profil ShX

Bestfriend

Jins:
Ko‘rsatilmagan
Staj:
10 oy 8 kun
Xabarlar:
13
Taqiq:

barcha qisimlarmi adashmasam 30 qisim emasmidi a

Mavzu yaratish 18-May-2020 09:40 (1 daqiqa o‘tgach)

Iqitibos

Profil ShX

showmusic77077

Jins:
Ko‘rsatilmagan
Staj:
6 oy 3 kun
Xabarlar:
6
Taqiq:

30gaca kooooorelii dovominiyam qo'yila okalaa

Mavzu yaratish 24-May-2020 17:48 (6 kun o‘tgach)

Iqitibos

Profil ShX

showmusic77077

Jins:
Ko‘rsatilmagan
Staj:
6 oy 3 kun
Xabarlar:
6
Taqiq:

30gaca kooooorelii dovominiyam qo'yila okalaa

Mavzu yaratish 24-May-2020 17:49 (19 soniya o‘tgach)

Iqitibos

Profil ShX

Ahmadullo ®

Jins:
Yigit
Staj:
7 oy 11 kun
Xabarlar:
72
Taqiq:

Bestfriend, Assalomu aleykum,yaqin orada qolganlariniham quyaman Inshoolloh

Mavzu yaratish 27-May-2020 03:44 (2 kun 9 soat o‘tgach)

Iqitibos

Profil ShX

Ahmadullo ®

Jins:
Yigit
Staj:
7 oy 11 kun
Xabarlar:
72
Taqiq:

showmusic77077, hop

Mavzu yaratish 27-May-2020 03:45 (49 soniya o‘tgach)

Iqitibos

Profil ShX
Xabarlarni ko‘rsatish:    

Hozirgi vaqt: 04-Iyun 02:26

Vaqtlar farqi: UTC + 5



Siz mavzu yaratishingiz mumkin emas
Siz xabarlarga javob qaytarishingiz mumkin emas
Siz o‘z xabarlaringizni tahrirlashingiz mumkin emas
Siz o‘z xabarlaringizni o‘chirishingiz mumkin emas
Siz so‘rovlarda ovoz berishingiz mumkin emas
Siz xabalarga fayllarni biriktirishingiz mumkin emas
Siz fayllarni ko‘chirishingiz mumkin emas