˂
˃
Tarqatmalar statistikasi
Ko‘chirmoqdaman: [ 3 ]
Ko‘chirib bo‘ldim: [ 2 ]
 
     
 
 

Dos ®

Jins:
Ko‘rsatilmagan
Staj:
1 yil 7 oy
Xabarlar:
23
Taqiq:

Qasamyod | The Spirit of the Sword [2007,fenteziya,jangari,TSRip]-

Chiqqan yili: 2007
Davlat: Xitoy
Janr: fantaziya, jangari
Davomiyligi: 27:37:39
Fasl: 1
Qism: 1-40
Tarjima: Professional dublyaj - [YoshlarTV]-Rejissyor: Tam Yau Ip, Chen Yunge-Rollarda: Nikolas Tse, Jillian Chun, Enni Shizuka Inno, Patrik Tam, Tsyo Chjenoy, Yan Juy, Tszi Chinxua, Tsyuy Syandun, Shao Bin, Syu Ge-Serial haqida: Bir paytlar markaziy tekislikda ilohiy qilichlar paydo bo'ldi. Qilich eng yaxshi qurol deb hisoblangan va ilohiy qilich xazina bilan tenglashtirilgan. Keyinchalik ilohiy qilichlar yo'qolgan bo'lsa ham, odamlar ularni hamma joyda qidirishdi. Yosh qilichbosh Da Tsang (Nicholas Tse) o'z ustozidan keyin vafot etgan irodasini bajarishi kerak, to'qqizta ilohiy qilichdan yettitasini topishi kerak (ikkitasi o'qituvchi tomonidan topilgan). Yigit safarga chiqadi va barcha taniqli ustalarga qarshi chiqadi. U hali ham sevgisini uchratishi va tug'ilish sirini o'rganishi kerak ...-Sifat: WEB-DLRip
Format: MPEG-4
Video: AVC 640x360 1 654 kb/s 25.00FPS
Audio: AAC 44100Hz stereo 96kbps O'zbek tilida-

Media Info

General
Complete name : I:\Seriallar\111111222222\Qasamyod(Uzbek tilida XITOY seriali)\Qasamyod 1 qism (Uzbek tilida XITOY seriali) HD.mp4
Format : MPEG-4
Format profile : Base Media / Version 2
Codec ID : mp42 (isom/mp42)
File size : 142 MiB
Duration : 42 min 8 s
Overall bit rate mode : Variable
Overall bit rate : 471 kb/s
Encoded date : UTC 2018-02-18 08:45:31
Tagged date : UTC 2018-02-18 08:45:31
Video
ID : 1
Format : AVC
Format/Info : Advanced Video Codec
Format profile : Baseline@L3
Format settings : 1 Ref Frames
Format settings, CABAC : No
Format settings, Reference fra : 1 frame
Format settings, GOP : M=1, N=60
Codec ID : avc1
Codec ID/Info : Advanced Video Coding
Duration : 42 min 8 s
Bit rate : 372 kb/s
Maximum bit rate : 1 654 kb/s
Width : 640 pixels
Height : 360 pixels
Display aspect ratio : 16:9
Frame rate mode : Constant
Frame rate : 25.000 FPS
Color space : YUV
Chroma subsampling : 4:2:0
Bit depth : 8 bits
Scan type : Progressive
Bits/(Pixel*Frame) : 0.065
Stream size : 112 MiB (79%)
Tagged date : UTC 2018-02-18 08:45:38
Codec configuration box : avcC
Audio
ID : 2
Format : AAC LC
Format/Info : Advanced Audio Codec Low Complexity
Codec ID : mp4a-40-2
Duration : 42 min 8 s
Bit rate mode : Variable
Bit rate : 96.0 kb/s
Maximum bit rate : 103 kb/s
Channel(s) : 2 channels
Channel layout : L R
Sampling rate : 44.1 kHz
Frame rate : 43.066 FPS (1024 SPF)
Compression mode : Lossy
Stream size : 28.9 MiB (20%)
Title : IsoMedia File Produced by Google, 5-11-2011
Encoded date : UTC 2018-02-18 08:45:35
Tagged date : UTC 2018-02-18 08:45:38
Profil ShX
Xabarlarni ko‘rsatish:    

Hozirgi vaqt: 04-Iyun 03:36

Vaqtlar farqi: UTC + 5



Siz mavzu yaratishingiz mumkin emas
Siz xabarlarga javob qaytarishingiz mumkin emas
Siz o‘z xabarlaringizni tahrirlashingiz mumkin emas
Siz o‘z xabarlaringizni o‘chirishingiz mumkin emas
Siz so‘rovlarda ovoz berishingiz mumkin emas
Siz xabalarga fayllarni biriktirishingiz mumkin emas
Siz fayllarni ko‘chirishingiz mumkin emas