˂
˃
Tarqatmalar statistikasi
Ko‘chirmoqdaman: [ 2 ]
Ko‘chirib bo‘ldim: [ 2 ]
 
     
 
 

logan7272 ®

Jins:
Yigit
Staj:
2 yil 1 oy
Xabarlar:
75

Qayerdan: Namangan

Taqiq:

Minionlar: Mini filmlar / Minions: Mini-Movie - Chiqarilgan yil: 2010-2019
Davlat: AQSH, Fransiya
Janr: multfilm, komediya, oilaviy, qisqametrajli
Davomiyligi: 00:03:45 - 00:04:34
Tarjima: Rus va Ingliz tilida
Subtitrlar: ruscha inglizcha-Rejissyor: Kayl Balda, Julien Soret-Rollarda: P'er Koffan, Kris Reno, Fabrice Joubert, Brian Lynch-Tavsif: Hammaga taniqli, kichkina va kulgili minionlar sizning ekranlaringizga qaytib kelishadi, ularda o; to'rtta ajoyib hikoyalar taqdim etilgan, unda asosiy qahramonlar o'ynashgan, kattalar tomoshabinidan tortib eng kichigiga qadar barchani kuldirishadi.Garchi ular odamlarning nutqini tushunsalar ham, insoniy gapira olmaydilar, lekin individual so'zlarni talaffuz qilishadi, lekin ular ko'pincha o'z tillarida bir-birlari bilan gaplashishadi. Ahmoqona, ammo juda foydali. Qizig'i shundaki, ba'zi minionlarning bitta ko'zlari bor.-Format: MKV 1080p BluRay
Video: HEVC, 1920x1080, ~3632 kbps, 23,976 fps
Audio:#1: AAC LC, 48 kHz, 96 kbps, 2 ch | Ruscha
Audio:#2: AAC LC, 48 kHz, 472 kbps, 6 ch |Inglizcha-

Ro'yxat

Banana (2010) (1080p BluRay x265)
Binky Nelson Unpacified (2015) (1080p BluRay x265 )
Competition (2015) (1080p BluRay x265)
Cro Minion (2015) (1080p BluRay x265)
Home Makeover (2010) (1080p BluRay x265)
Minion Scouts (2019) (1080p BluRay x265)
Mower Minions 2016 (1080p BluRay x265 )
Orientation Day (2010) (1080p BluRay x265)
Panic in the Mailroom (2013) (1080p BluRay x265)
Puppy! (2013) (1080p BluRay x265)
Santa's Little Helpers (2019) (1080p BluRay x265 )
The Secret Life of Kyle (2017) (1080p BluRay x265)
Training Wheels (2013) (1080p BluRay x265)
Yellow is the New Black (2018) (1080p BluRay x265 )

MediaInfo

General
Unique ID : 181111856811757412367084154320691815533 (0x8840DFF4F8F5BBF5F2384273F602646D)
Complete name : C:\Minions Mini-Movie Collection (2010–2019) (1080p BluRay x265 HEVC 10bit AAC 7.1)\Banana (2010) (1080p BluRay x265).mkv
Format : Matroska
Format version : Version 4 / Version 2
File size : 113 MiB
Duration : 3 min 45 s
Overall bit rate : 4 191 kb/s
Movie name : Banana (2010)
Encoded date : UTC 2020-04-29 16:53:28
Writing application : mkvmerge v45.0.0 ('Heaven in Pennies') 32-bit
Writing library : libebml v1.3.10 + libmatroska v1.5.2
Video
ID : 1
Format : HEVC
Format/Info : High Efficiency Video Coding
Format profile : Main 10@L4@Main
Codec ID : V_MPEGH/ISO/HEVC
Duration : 3 min 44 s
Bit rate : 3 632 kb/s
Width : 1 920 pixels
Height : 1 080 pixels
Display aspect ratio : 16:9
Frame rate mode : Constant
Frame rate : 23.976 (24000/1001) FPS
Color space : YUV
Chroma subsampling : 4:2:0
Bit depth : 10 bits
Bits/(Pixel*Frame) : 0.073
Stream size : 97.2 MiB (86%)
Writing library : x265 3.1+20-913823aa15cd:[Windows][GCC 9.2.0][64 bit] 10bit
Encoding settings : cpuid=1111039 / frame-threads=3 / numa-pools=8 / wpp / no-pmode / no-pme / no-psnr / no-ssim / log-level=2 / input-csp=1 / input-
res=1920x1080 / interlace=0 / total-frames=0 / level-idc=0 / high-tier=1 / uhd-bd=0 / ref=4 / no-allow-non-conformance / no-repeat-headers / annexb / no-aud / no-hrd /
info / hash=0 / no-temporal-layers / open-gop / min-keyint=23 / keyint=250 / gop-lookahead=0 / bframes=8 / b-adapt=2 / b-pyramid / bframe-bias=0 / rc-lookahead=25 /
lookahead-slices=4 / scenecut=40 / radl=0 / no-splice / no-intra-refresh / ctu=64 / min-cu-size=8 / rect / no-amp / max-tu-size=32 / tu-inter-depth=1 / tu-intra-
depth=1 / limit-tu=0 / rdoq-level=2 / dynamic-rd=0.00 / no-ssim-rd / signhide / no-tskip / nr-intra=0 / nr-inter=0 / no-constrained-intra / strong-intra-smoothing /
max-merge=3 / limit-refs=3 / limit-modes / me=3 / subme=3 / merange=57 / temporal-mvp / no-hme / weightp / no-weightb / no-analyze-src-pics / deblock=0:0 / no-sao /
no-sao-non-deblock / rd=4 / selective-sao=0 / no-early-skip / rskip / no-fast-intra / no-tskip-fast / no-cu-lossless / no-b-intra / no-splitrd-skip / rdpenalty=0 /
psy-rd=2.00 / psy-rdoq=1.00 / no-rd-refine / no-lossless / cbqpoffs=0 / crqpoffs=0 / rc=crf / crf=18.0 / qcomp=0.60 / qpstep=4 / stats-write=0 / stats-read=0 /
ipratio=1.40 / pbratio=1.30 / aq-mode=3 / aq-strength=1.00 / cutree / zone-count=0 / no-strict-cbr / qg-size=32 / no-rc-grain / qpmax=69 / qpmin=0 / no-const-vbv /
sar=1 / overscan=0 / videoformat=5 / range=0 / colorprim=2 / transfer=2 / colormatrix=2 / chromaloc=0 / display-window=0 / cll=0,0 / min-luma=0 / max-luma=1023 / log2
-max-poc-lsb=8 / vui-timing-info / vui-hrd-info / slices=1 / no-opt-qp-pps / no-opt-ref-list-length-pps / no-multi-pass-opt-rps / scenecut-bias=0.05 / no-opt-cu-
delta-qp / aq-motion / no-hdr / no-hdr-opt / no-dhdr10-opt / no-idr-recovery-sei / analysis-reuse-level=5 / scale-factor=0 / refine-intra=0 / refine-inter=0 / refine-
mv=1 / refine-ctu-distortion=0 / no-limit-sao / ctu-info=0 / no-lowpass-dct / refine-analysis-type=0 / copy-pic=1 / max-ausize-factor=1.0 / no-dynamic-refine / no-
single-sei / no-hevc-aq / no-svt / no-field / qp-adaptation-range=1.00
Default : Yes
Forced : Yes
Color range : Limited
Audio #1
ID : 2
Format : AAC
Format/Info : Advanced Audio Codec
Format profile : LC
Codec ID : A_AAC-2
Duration : 3 min 45 s
Bit rate : 96.0 kb/s
Channel(s) : 2 channels
Channel positions : Front: L R
Sampling rate : 48.0 kHz
Frame rate : 46.875 FPS (1024 SPF)
Compression mode : Lossy
Stream size : 2.58 MiB (2%)
Title : dun|
Language : Russian
Default : Yes
Forced : No
Audio #2
ID : 3
Format : AAC
Format/Info : Advanced Audio Codec
Format profile : LC
Codec ID : A_AAC-2
Duration : 3 min 45 s
Bit rate : 472 kb/s
Channel(s) : 6 channels
Channel positions : Front: L C R, Side: L R, LFE
Sampling rate : 48.0 kHz
Frame rate : 46.875 FPS (1024 SPF)
Compression mode : Lossy
Delay relative to video : 20 ms
Stream size : 12.7 MiB (11%)
Language : English
Default : No
Forced : No
Menu
00:00:00.000 : en:(01)00:00:00:000
00:03:45.016 : en:(02)00:03:45:016
SRINSHOTLAR
Profil ShX
Xabarlarni ko‘rsatish:    

Hozirgi vaqt: 30-May 01:55

Vaqtlar farqi: UTC + 5



Siz mavzu yaratishingiz mumkin emas
Siz xabarlarga javob qaytarishingiz mumkin emas
Siz o‘z xabarlaringizni tahrirlashingiz mumkin emas
Siz o‘z xabarlaringizni o‘chirishingiz mumkin emas
Siz so‘rovlarda ovoz berishingiz mumkin emas
Siz xabalarga fayllarni biriktirishingiz mumkin emas
Siz fayllarni ko‘chirishingiz mumkin emas