˂
˃
Tarqatmalar statistikasi
Ko‘chirmoqdaman: [ 1 ]
Ko‘chirib bo‘ldim: [ 29 ]
 
     
 
 

Ahmadullo ®

Jins:
Yigit
Staj:
7 oy 11 kun
Xabarlar:
72
Taqiq:

Nyu-yorkning besh minorasi / Пять минаретов в Нью-Йорке / Five Minarets in New York
--Chiqqan yili: 2010
Davlat: AQSH, Turkiya
Janr: Drama,jinoyat
Davomiyligi: 01:51:41
Tarjima: Professional O'zbek tilida SevimliTV
Tarjima 2: Professional (Original) Turk tilida--Rejissyor: Mahsun Kırmızıgul--Rollarda: Haluk Bilginer, Danny Glover, Jina Gershon, Mahsun Kirmizigul, Robert Patrik, Mustafo Sandal, Skot Uilyam Uinters, Sharriff Pag, Engin Altan, Jastin Kotsonas--Film Haqida: Turkiyaning ikkita antiterror agenti xavfli islomiy terrorchini o'z vataniga qaytarish uchun Nyu-Yorkka missiya uchun yuborilgan. Ularning so'zlariga ko'ra, u Amerika shahrida jihod uyushtirmoqchi. Ammo bu inson jinoiy niyatlarda va xatti-harakatlarda ko'rilmagan. Uning rafiqasi aybsizligiga ishonadi va erining ozodligi uchun kurashadi, chunki agar uni Turkiyaga olib ketishsa, uni boshqa ko'rmasligini biladi.--Videoning sifati: BDRip 1080p
Video format: MKV-Video: VP90 Video 1920x1080 25fps 1 578 kb/s
Audio: AAC 44000Hz stereo O'zbek tili
Audio 2: AC3 48000Hz stereo Turk tili
Subtitrlar: Ingliz tili--

Media Info

General
Unique ID : 145313214086921540799289238059549764607 (0x6D524E99AED5029E5CCEFD0E4698ABFF)
Complete name : K:\MEDIA\HD MOVIES\TARJIMA HD x264 x265\2019-2020\Newyorkning.besh.minorasi.2010.bdrip1080.mkv
Format : Matroska
Format version : Version 4
File size : 1.53 GiB
Duration : 1 h 51 min
Overall bit rate : 1 967 kb/s
Encoded date : UTC 2020-04-30 13:42:47
Writing application : mkvmerge v21.0.0 ('Tardigrades Will Inherit The Earth') 64-bit
Writing library : libebml v1.3.5 + libmatroska v1.4.8 / IDMmkvlib0.1
Language : und
Video
ID : 1
Format : VP9
Codec ID : V_VP9
Duration : 1 h 51 min
Bit rate : 1 578 kb/s
Width : 1 920 pixels
Height : 1 080 pixels
Display aspect ratio : 16:9
Frame rate mode : Constant
Frame rate : 25.000 FPS
Bits/(Pixel*Frame) : 0.030
Stream size : 1.23 GiB (80%)
Default : Yes
Forced : No
Audio #1
ID : 2
Format : AAC LC
Format/Info : Advanced Audio Codec Low Complexity
Codec ID : A_AAC-2
Duration : 1 h 51 min
Bit rate : 192 kb/s
Channel(s) : 2 channels
Channel layout : L R
Sampling rate : 44.1 kHz
Frame rate : 43.066 FPS (1024 SPF)
Compression mode : Lossy
Stream size : 156 MiB (10%)
Title : uzb by MuhammadAhmad
Language : Uzbek
Default : Yes
Forced : Yes
Audio #2
ID : 3
Format : AC-3
Format/Info : Audio Coding 3
Commercial name : Dolby Digital
Codec ID : A_AC3
Duration : 1 h 51 min
Bit rate mode : Constant
Bit rate : 192 kb/s
Channel(s) : 2 channels
Channel layout : L R
Sampling rate : 48.0 kHz
Frame rate : 31.250 FPS (1536 SPF)
Bit depth : 16 bits
Compression mode : Lossy
Stream size : 153 MiB (10%)
Title : turk
Service kind : Complete Main
Default : No
Forced : No
Text #1
ID : 4
Format : UTF-8
Codec ID : S_TEXT/UTF8
Codec ID/Info : UTF-8 Plain Text
Duration : 1 h 17 min
Bit rate : 5 b/s
Count of elements : 88
Stream size : 2.88 KiB (0%)
Title : uzb by MuhammadAhmad
Language : Uzbek
Default : Yes
Forced : Yes
Text #2
ID : 5
Format : UTF-8
Codec ID : S_TEXT/UTF8
Codec ID/Info : UTF-8 Plain Text
Duration : 1 h 44 min
Bit rate : 49 b/s
Count of elements : 1089
Stream size : 37.5 KiB (0%)
Title : english
Default : No
Forced : No
Text #3
ID : 6
Format : UTF-8
Codec ID : S_TEXT/UTF8
Codec ID/Info : UTF-8 Plain Text
Duration : 20 s 24 ms
Bit rate : 25 b/s
Count of elements : 2
Stream size : 64.0 Bytes (0%)
Language : Uzbek
Default : No
Forced : Yes
LAVHALAR
Profil ShX
Xabarlarni ko‘rsatish:    

Hozirgi vaqt: 04-Iyun 02:48

Vaqtlar farqi: UTC + 5



Siz mavzu yaratishingiz mumkin emas
Siz xabarlarga javob qaytarishingiz mumkin emas
Siz o‘z xabarlaringizni tahrirlashingiz mumkin emas
Siz o‘z xabarlaringizni o‘chirishingiz mumkin emas
Siz so‘rovlarda ovoz berishingiz mumkin emas
Siz xabalarga fayllarni biriktirishingiz mumkin emas
Siz fayllarni ko‘chirishingiz mumkin emas