˂
˃
Tarqatmalar statistikasi
Ko‘chirmoqdaman: [ 1 ]
Ko‘chirib bo‘ldim: [ 9 ]
 
     
 
 

#Maksadjon_17 ®

Jins:
Yigit
Staj:
10 oy 3 kun
Xabarlar:
19

Qayerdan: Namangan, Chartak

Taqiq:

Lev Yashin. Mening orzularimdagi darvozabon
--Chiqqan yili: 2019
Davlat: Rossiya
Janr: Biografiya, sport, drama
Davomiyligi: 01:56:02-Tarjima: Professional (dublyaj qilingan) Uzbek
Tarjima 2: Professional (dublyaj qilingan) Russian | iTunes-Rejissyor: Vasiliy Chiginskiy-Rollarda: Aleksandr Fokin, Yuliya Xlinina, Aleksey Guskov, Aleksey Kravchenko, Evgeniy Dyatlov, Vitaliy Xaev, Mixail Eliseev, Yan Tsapnik, Aleksandr Samoylenko, Vladimir Andreev.-Tavsif: "Qora o'rgimchak", "qora pantera" va hatto "qora sakkizoyoq" - bu laqablar Lev Yashinga moslashuvchanligi, chaqmoq bilan tez harakatlanishi va maydonni yorqin ko'rishlari uchun berilgan. U, shubhasiz, "D" harfi bilan qora kozokda, o'zining penaltidan to'liq egasi edi. Chilidagi Jahon kubogida yutqazgandan so'ng, u keyinchalik g'alaba bilan qaytish uchun ketishi kerak va yana nafaqat mamlakatning, balki butun dunyoning eng yaxshi futbolchisiga aylanadi - futbol tarixidagi "Oltin to'p" ni olgan yagona darvozabon. FIFAning ta'kidlashicha, eng yaxshi, XX asrning darvozaboni.-Videoning sifati: WEB-DL
Video format: MKV
Video: AVC, 1912x792, 4527 kbps, 23,976 fps
Audio: AAC, 2 ch, 48 kHz, 196 kpbs, Uzbek | My5 TV
Audio 2: AC3, 5.1 ch, 48 kHz, 384 kbps, Russian | iTunes
Subtitrlar: mavjud emas-

Media Info

General
Unique ID : 59396865165765278583689628108976566207 (0x2CAF6B8D26BB509856503F245A282FBF)
Complete name : D:\TorrentTracker\03) Lev Yashin. Mening orzularimdagi darvozabon.2019[WEB-DL 1080p] by #Maksadjon_17 .mkv
Format : Matroska
Format version : Version 4
File size : 4.14 GiB
Duration : 1 h 56 min
Overall bit rate : 5 110 kb/s
Encoded date : UTC 2020-04-29 13:37:31
Writing application : mkvmerge v38.0.0 ('The Silent Type') 64-bit
Writing library : libebml v1.3.9 + libmatroska v1.5.2
Video
ID : 1
Format : AVC
Format/Info : Advanced Video Codec
Format profile : High@L4
Format settings : CABAC / 5 Ref Frames
Format settings, CABAC : Yes
Format settings, Reference frames : 5 frames
Codec ID : V_MPEG4/ISO/AVC
Duration : 1 h 56 min
Bit rate : 4 527 kb/s
Width : 1 912 pixels
Height : 792 pixels
Display aspect ratio : 2.40:1
Frame rate mode : Constant
Frame rate : 23.976 FPS
Color space : YUV
Chroma subsampling : 4:2:0
Bit depth : 8 bits
Scan type : Progressive
Bits/(Pixel*Frame) : 0.125
Stream size : 3.67 GiB (89%)
Language : English
Default : Yes
Forced : No
Color range : Limited
Color primaries : BT.709
Transfer characteristics : BT.709
Matrix coefficients : BT.709
Audio #1
ID : 2
Format : AAC LC
Format/Info : Advanced Audio Codec Low Complexity
Codec ID : A_AAC-2
Duration : 1 h 56 min
Bit rate : 196 kb/s
Channel(s) : 2 channels
Channel layout : L R
Sampling rate : 48.0 kHz
Frame rate : 46.875 FPS (1024 SPF)
Compression mode : Lossy
Stream size : 163 MiB (4%)
Title : Audio #0 Uzbek | My5 TV
Language : Uzbek
Default : Yes
Forced : No
Audio #2
ID : 3
Format : AC-3
Format/Info : Audio Coding 3
Commercial name : Dolby Digital
Codec ID : A_AC3
Duration : 1 h 56 min
Bit rate mode : Constant
Bit rate : 384 kb/s
Channel(s) : 6 channels
Channel layout : L R C LFE Ls Rs
Sampling rate : 48.0 kHz
Frame rate : 31.250 FPS (1536 SPF)
Compression mode : Lossy
Stream size : 319 MiB (8%)
Title : Audio #1 Russian | Original
Language : Russian
Service kind : Complete Main
Default : No
Forced : No
Menu
00:00:00.000 : en:1
00:03:17.000 : en:2
00:10:08.000 : en:3
00:20:19.000 : en:4
00:31:28.000 : en:5
00:41:06.000 : en:6
00:50:11.000 : en:7
01:01:07.000 : en:8
01:09:30.000 : en:9
01:20:23.000 : en:10
01:29:58.000 : en:11
01:40:56.000 : en:12
01:51:15.000 : en:13

Lavhalar

Profil ShX
Xabarlarni ko‘rsatish:    

Hozirgi vaqt: 01-Iyun 21:24

Vaqtlar farqi: UTC + 5



Siz mavzu yaratishingiz mumkin emas
Siz xabarlarga javob qaytarishingiz mumkin emas
Siz o‘z xabarlaringizni tahrirlashingiz mumkin emas
Siz o‘z xabarlaringizni o‘chirishingiz mumkin emas
Siz so‘rovlarda ovoz berishingiz mumkin emas
Siz xabalarga fayllarni biriktirishingiz mumkin emas
Siz fayllarni ko‘chirishingiz mumkin emas