˂
˃
Tarqatmalar statistikasi
Ko‘chirmoqdaman: [ 2 ]
Ko‘chirib bo‘ldim: [ 1 ]
 
     
 
 

AxeL ®

Jins:
Yigit
Staj:
2 yil 2 oy
Xabarlar:
774

Qayerdan: Gronland, Norway

Taqiq:

Chuqur | Çukur | Яма- Chiqqan yili: 2017 - 2018
Davlat: Turkiya
Janr: Jangovor, triller, drama, kriminal, detektiv
Davomiyligi: 02:09:53 X 33
Tarjima: [Sevimli TV] telekanali tomonidan dublyaj qilingan-Rejissyor: Sinan O'zturk / O'zgur Sevimli-Rollarda: Aras Bulut Iynemli, Dilan Chichek Deniz, Erkan Kesal, Perihan Savash, Erkan Kolchak Ko'stendil, O'ner Erkan, Riza Kocao'g'lu, Nebil Sayin, Kubilay Aka-Tavsif: Yoshgina Yamach Kochovali Sena bilan ko'chada uchrashib, tanishib qolishgach, 3 kun ichida Parijda turmush qurishadi. Xuddi shu hafta Qahramon Kochovali Vartolu odamlari tomonidan o'ldiriladi va otasi Idris Kochovalining oilasi parokanda bo'ladi. Yamachning onasi Sulton Kochovali bo'lib, Yamachning oldiga Parijga borib Vartoludan o'ch olish uchun Yamachni uyga qaytaradi...- -Sifat: WEBRip, WEB-DLRip 720p
Format: MKV
Video: 1280x720 (16:9) 25 fps 878 kbps
Audio: AAC 2ch 44.1 kHz 126 kbps Turk tilida
Audio: MP3 2ch 44.1 kHz 192 kbps O'zbek tilida [Sevimli TV]-

Media Info

General
Unique ID                      : 52738365462160937101252733255858335920 (0x27AD0A2B7E63B8F0A55A7D2C147130B0)
Complete name                  : D:\Razdacha\Çukur 1. Sezon [33 Bölüm]\Çukur 2. Bölüm.mkv
Format                         : Matroska
Format version                 : Version 4
File size                      : 1.18 GiB
Duration                       : 2 h 19 min
Overall bit rate               : 1 216 kb/s
Encoded date                   : UTC 2080-03-14 19:26:20
Writing application            : mkvmerge v22.0.0 ('At The End Of The World') 64-bit
Writing library                : libebml v1.3.5 + libmatroska v1.4.8
Video
ID                             : 1
Format                         : AVC
Format/Info                    : Advanced Video Codec
Format profile                 : High@L3.1
Format settings                : CABAC / 4 Ref Frames
Format settings, CABAC         : Yes
Format settings, Reference fra : 4 frames
Codec ID                       : V_MPEG4/ISO/AVC
Duration                       : 2 h 19 min
Bit rate                       : 878 kb/s
Width                          : 1 280 pixels
Height                         : 720 pixels
Display aspect ratio           : 16:9
Frame rate mode                : Constant
Frame rate                     : 25.000 FPS
Color space                    : YUV
Chroma subsampling             : 4:2:0
Bit depth                      : 8 bits
Scan type                      : Progressive
Bits/(Pixel*Frame)             : 0.038
Stream size                    : 893 MiB (74%)
Writing library                : x264 core 146
Encoding settings              : cabac=1 / ref=2 / deblock=1:0:0 / analyse=0x3:0x113 / me=hex / subme=6 / psy=1 / psy_rd=1.00:0.00 / mixed_ref=1 / me_range=16 / chroma_me=1 / trellis=1 / 8x8dct=1 / cqm=0 / deadzone=21,11 / fast_pskip=1 / chroma_qp_offset=-2 / threads=48 / lookahead_threads=5 / sliced_threads=0 / nr=0 / decimate=1 / interlaced=0 / bluray_compat=0 / constrained_intra=0 / bframes=3 / b_pyramid=2 / b_adapt=1 / b_bias=0 / direct=1 / weightb=1 / open_gop=0 / weightp=1 / keyint=50 / keyint_min=5 / scenecut=40 / intra_refresh=0 / rc_lookahead=30 / rc=2pass / mbtree=1 / bitrate=878 / ratetol=97.5 / qcomp=0.60 / qpmin=0 / qpmax=69 / qpstep=4 / cplxblur=20.0 / qblur=0.5 / ip_ratio=1.40 / aq=1:1.00
Default                        : Yes
Forced                         : No
Audio #1
ID                             : 2
Format                         : AAC LC
Format/Info                    : Advanced Audio Codec Low Complexity
Codec ID                       : A_AAC-2
Duration                       : 2 h 19 min
Bit rate                       : 126 kb/s
Channel(s)                     : 2 channels
Channel layout                 : L R
Sampling rate                  : 44.1 kHz
Frame rate                     : 43.066 FPS (1024 SPF)
Compression mode               : Lossy
Delay relative to video        : 58 ms
Stream size                    : 125 MiB (10%)
Title                          : Turk tilida (Original)
Language                       : Turkish
Default                        : Yes
Forced                         : No
Audio #2
ID                             : 3
Format                         : MPEG Audio
Format version                 : Version 1
Format profile                 : Layer 3
Format settings                : Joint stereo / MS Stereo
Codec ID                       : A_MPEG/L3
Codec ID/Hint                  : MP3
Duration                       : 2 h 19 min
Bit rate mode                  : Constant
Bit rate                       : 192 kb/s
Channel(s)                     : 2 channels
Sampling rate                  : 44.1 kHz
Frame rate                     : 38.281 FPS (1152 SPF)
Compression mode               : Lossy
Stream size                    : 191 MiB (16%)
Title                          : O'zbek tilida (AxeL)
Writing library                : LAME3.97
Language                       : Uzbek
Default                        : No
Forced                         : No

Eslatma!

Eslatma!: Har bir qism qo'shilganida yangi torrent yaratiladi. Yangi qismlarni ko'chirib olish uchun foydalanuvchilar qilishi kerak bo'lgan amallar:
1. ko'chirishni to'xtatish,
2. torrent dasturingizdan eski torrentni o'chirib tashlash (eski qismlarni o'chirish shart emas),
3. yangi torrentni yuklash va o'z dasturingizda eskisini o'rniga yangi torrentni ishga tushirish, yangi qismlarni ko'chirish uchun dasturingizga eski saqlangan qismlar papkasi yo'lagini ko'rsatib o'tishingiz kerak bo'ladi.
Sizni dasturingiz shu vaqtda eski papkani tekshirishdan (хеширование) o'tkazishi kerak (agar tekshirish amalga oshmasa - unda o'zingiz yordam bering), va shunda sizda mavjud bo'lmagan qismlarni yuklab olish boshlanadi. Bunday holatda eski qismlar o'chib ketmaydi, tarqatishda davom etadi!
Agar siz eski qismlarni allaqachon o'chirib yuborgan bo`lsangiz, unda yangi torrent ishga tushirilgan vaqtda kerakli joylarga "галочка" qo'yib eski qismlarni ham qaytadan yuklashingiz mumkin. Iloji boricha eski qismlarni uzoq vaqt davomida o'chirmaslikka harakat qiling, chunki tarqatuvchi shaxs (релизёр) eski qismlarni tarqatishga emas, yangi qismlarni joylashga e'tiborini qaratishi kerak.
LAVHALAR
Profil ShX

Striker

Jins:
Yigit
Staj:
2 yil 9 oy
Xabarlar:
61
Taqiq:

Gap yuq. Ishlarga omad

Mavzu yaratish 29-Apr-2020 02:45 (3 soat o‘tgach)

Iqitibos

Profil ShX

ZAFAR-studio

Jins:
Yigit
Staj:
1 yil 11 oy
Xabarlar:
65

Qayerdan: Хоразм вилояти, Урганч шаҳри, "12-сонли Маъшал" маҳалласидан

Taqiq:

Zo'r....

Mavzu yaratish 29-Apr-2020 06:28 (3 soat o‘tgach)

Iqitibos

Profil ShX

farrux1981

Jins:
Yigit
Staj:
1 yil
Xabarlar:
45
Taqiq:

Yuklab bulmayapti-ku

Mavzu yaratish 30-Apr-2020 08:11 (1 kun 1 soat o‘tgach)

Iqitibos

Profil ShX

AxeL ®

Jins:
Yigit
Staj:
2 yil 2 oy
Xabarlar:
774

Qayerdan: Gronland, Norway

Taqiq:

Striker, ZAFAR-studio, rahmat hammasi sizlar uchun

Mavzu yaratish 30-Apr-2020 16:20 (8 soat o‘tgach)

Iqitibos

Profil ShX

ozod5555

Jins:
Yigit
Staj:
1 yil 9 oy
Xabarlar:
3
Taqiq:

Bu O'zbek Tilidami

Mavzu yaratish 30-Apr-2020 20:47 (4 soat o‘tgach)

Iqitibos

Profil ShX

MRLG

Jins:
Yigit
Staj:
2 yil 9 oy
Xabarlar:
643
Taqiq:

ozod5555, 2 xil tilda

Mavzu yaratish 01-May-2020 04:02 (7 soat o‘tgach)

Iqitibos

Profil ShX

Sancho

Jins:
Ko‘rsatilmagan
Staj:
3 oy 28 kun
Xabarlar:
1
Taqiq:

Ajoyib, keyingi fasillarini ham kutib qolamiz!

Mavzu yaratish 01-May-2020 20:07 (16 soat o‘tgach)

Iqitibos

Profil ShX

AxeL ®

Jins:
Yigit
Staj:
2 yil 2 oy
Xabarlar:
774

Qayerdan: Gronland, Norway

Taqiq:

Reliz quyidagi sabablarga ko'ra vaqtincha to'xtatildi:
    * Fayllar ko'chirilgan joydan TV dan yozib olinganligi xato convert qilinganligi;
    * Serial onlayn TVdan yozib olishda ovoz yo'lakchasida uzilishlar bo'lganligi;
    * Montaj jarayonida ayrim joylarida 1 sekundlik xatolar bo'lganligi;

Reliz qayta montajlangan holda quyidagi qulayliklar bilan qayta reliz qilinadi:
    * Sifatli o'zbek tilidagi ovoz yo'lakchasi;
    * TV da qirqilgan joylari turk tilida davom etadi;
    * Original ovoz yo'lakchasi (turk tili ikkinchi til sifatida biriktiriladi) qo'shiladi;
Hozirda montaj ishlari davom etmoqda...

Mavzu yaratish 26-May-2020 13:29 (24 kun o‘tgach)

Iqitibos

Profil ShX
Xabarlarni ko‘rsatish:    

Hozirgi vaqt: 04-Iyun 02:40

Vaqtlar farqi: UTC + 5



Siz mavzu yaratishingiz mumkin emas
Siz xabarlarga javob qaytarishingiz mumkin emas
Siz o‘z xabarlaringizni tahrirlashingiz mumkin emas
Siz o‘z xabarlaringizni o‘chirishingiz mumkin emas
Siz so‘rovlarda ovoz berishingiz mumkin emas
Siz xabalarga fayllarni biriktirishingiz mumkin emas
Siz fayllarni ko‘chirishingiz mumkin emas