˂
˃
Tarqatmalar statistikasi
Ko‘chirib bo‘ldim: [ 24 ]
 
     
 
 

Ahmadullo ®

Jins:
Yigit
Staj:
7 oy 9 kun
Xabarlar:
72
Taqiq:

Uddaburon Yigitlar 3: Hamishga birga / Плохие парни навсегда / Bad Boys for Life
--Chiqqan yili: 2020
Davlat: AQSH, Meksika
Janr: Jangari, triller, kulguli, jinoyat
Davomiyligi: 02:03:58
Tarjima: Professional MY5 O'zbek tilida
Tarjima 2: Professional (Original) Ingliz tilida
Tarjima 3: Professional (Dublyaj) Rus tilida--Rejissyor: Adil El Arbi--Rollarda: Uill Smit, Martin Lawrence, Vanessa Ann Hudgens, Alexander Ludwig, Charlz Melton, Paola Nunez, Kate del Castillo, Nikki Jam, Jo Pantogliano, Jacob Scipio--Film Haqida: Detektivlar Mayk Louri va Markus Burnett yana ish boshlashdi! To'g'ri, ular barcha operatsiyalardan chetlatilgan, ammo umidsiz do'stlar biron narsani to'xtatib qo'yganmi? Oxir oqibat, bu safar kimdir Mayk uchun ovni ochadi. Shunday qilib, yigitlar barchasini oxiriga yetkazishlari kerak!--Videoning sifati: BDRip-AVC
Video format: MKV-Video: H264 Video 1150x480 23.976fps 2 845 kb/s
Audio: AAC 44000Hz stereo O'zbek tili
Audio 2: AC3 48000Hz 6ch 384kbps Ing tili
Audio 3: AC3 48000Hz 6ch 384kbps Rus tili
Subtitrlar: Rus,ingliz va ukrain tilida--

Media Info

General
Unique ID : 73008418326657757352063457637924720463 (0x36ECE8EF84CC7499F6026B4A4869CF4F)
Complete name : K:\MEDIA\HD MOVIES\TARJIMA HD x264 x265\2019-2020\Uddaburon.yigitlar.3.Hamisha.birga.2020.BDRip-AVC.mkv
Format : Matroska
Format version : Version 4
File size : 3.30 GiB
Duration : 2 h 3 min
Overall bit rate : 3 812 kb/s
Movie name : [Bad_Boys_for_Life_2020_All_Films_Rutracker]
Encoded date : UTC 2020-04-28 02:18:23
Writing application : mkvmerge v21.0.0 ('Tardigrades Will Inherit The Earth') 64-bit
Writing library : libebml v1.3.5 + libmatroska v1.4.8
Video
ID : 1
Format : AVC
Format/Info : Advanced Video Codec
Format profile : High@L4.1
Format settings : CABAC / 11 Ref Frames
Format settings, CABAC : Yes
Format settings, Reference fra : 11 frames
Codec ID : V_MPEG4/ISO/AVC
Duration : 2 h 3 min
Bit rate : 2 845 kb/s
Width : 1 150 pixels
Height : 480 pixels
Display aspect ratio : 2.40:1
Frame rate mode : Constant
Frame rate : 23.976 FPS
Color space : YUV
Chroma subsampling : 4:2:0
Bit depth : 8 bits
Scan type : Progressive
Bits/(Pixel*Frame) : 0.215
Stream size : 2.46 GiB (75%)
Title : uzb by MuhammadAhmad
Writing library : x264 core 160 r3000 33f9e14
Encoding settings : cabac=1 / ref=11 / deblock=1:-3:-2 / analyse=0x3:0x133 / me=umh / subme=11 / psy=1 / psy_rd=1.00:0.10 / mixed_ref=1 / me_range=32 / chroma_me=1 / trellis=2 / 8x8dct=1 / cqm=0 / deadzone=21,11 / fast_pskip=0 / chroma_qp_offset=-3 / threads=6 / lookahead_threads=1 / sliced_threads=0 / nr=0 / decimate=1 / interlaced=0 / bluray_compat=0 / constrained_intra=0 / bframes=12 / b_pyramid=2 / b_adapt=2 / b_bias=0 / direct=3 / weightb=1 / open_gop=0 / weightp=2 / keyint=240 / keyint_min=23 / scenecut=40 / intra_refresh=0 / rc_lookahead=60 / rc=crf / mbtree=0 / crf=18.7 / qcomp=0.60 / qpmin=0 / qpmax=69 / qpstep=4 / vbv_maxrate=50000 / vbv_bufsize=62500 / crf_max=0.0 / nal_hrd=none / filler=0 / ip_ratio=1.40 / pb_ratio=1.30 / aq=1:1.00
Language : English
Default : Yes
Forced : No
Audio #1
ID : 2
Format : AAC LC
Format/Info : Advanced Audio Codec Low Complexity
Codec ID : A_AAC-2
Duration : 2 h 3 min
Bit rate : 192 kb/s
Channel(s) : 2 channels
Channel layout : L R
Sampling rate : 44.1 kHz
Frame rate : 43.066 FPS (1024 SPF)
Compression mode : Lossy
Stream size : 173 MiB (5%)
Title : yzb by MUAH (my5tv)
Language : Russian
Default : Yes
Forced : Yes
Audio #2
ID : 3
Format : AC-3
Format/Info : Audio Coding 3
Commercial name : Dolby Digital
Codec ID : A_AC3
Duration : 2 h 3 min
Bit rate mode : Constant
Bit rate : 384 kb/s
Channel(s) : 6 channels
Channel layout : L R C LFE Ls Rs
Sampling rate : 48.0 kHz
Frame rate : 31.250 FPS (1536 SPF)
Bit depth : 16 bits
Compression mode : Lossy
Stream size : 340 MiB (10%)
Title : Dub - iTunes Russia
Language : Russian
Service kind : Complete Main
Default : No
Forced : No
Audio #3
ID : 4
Format : AC-3
Format/Info : Audio Coding 3
Commercial name : Dolby Digital
Codec ID : A_AC3
Duration : 2 h 3 min
Bit rate mode : Constant
Bit rate : 384 kb/s
Channel(s) : 6 channels
Channel layout : L R C LFE Ls Rs
Sampling rate : 48.0 kHz
Frame rate : 31.250 FPS (1536 SPF)
Bit depth : 16 bits
Compression mode : Lossy
Stream size : 341 MiB (10%)
Title : Original
Language : English
Service kind : Complete Main
Default : No
Forced : No
Text #1
ID : 5
Format : UTF-8
Codec ID : S_TEXT/UTF8
Codec ID/Info : UTF-8 Plain Text
Duration : 20 s 24 ms
Bit rate : 25 b/s
Count of elements : 2
Stream size : 64.0 Bytes (0%)
Title : yzb by MUAH
Language : Russian
Default : Yes
Forced : Yes
Text #2
ID : 6
Format : UTF-8
Codec ID : S_TEXT/UTF8
Codec ID/Info : UTF-8 Plain Text
Duration : 1 h 46 min
Bit rate : 5 b/s
Count of elements : 90
Stream size : 4.20 KiB (0%)
Title : Forced
Language : Russian
Default : No
Forced : No
Text #3
ID : 7
Format : UTF-8
Codec ID : S_TEXT/UTF8
Codec ID/Info : UTF-8 Plain Text
Duration : 2 h 2 min
Bit rate : 91 b/s
Count of elements : 1794
Stream size : 82.6 KiB (0%)
Title : Full
Language : Russian
Default : No
Forced : No
Text #4
ID : 8
Format : UTF-8
Codec ID : S_TEXT/UTF8
Codec ID/Info : UTF-8 Plain Text
Duration : 1 h 58 min
Bit rate : 4 b/s
Count of elements : 79
Stream size : 3.65 KiB (0%)
Title : Forced
Language : Ukrainian
Default : No
Forced : No
Text #5
ID : 9
Format : UTF-8
Codec ID : S_TEXT/UTF8
Codec ID/Info : UTF-8 Plain Text
Duration : 2 h 2 min
Bit rate : 102 b/s
Count of elements : 1618
Stream size : 92.0 KiB (0%)
Title : Full
Language : Ukrainian
Default : No
Forced : No
Text #6
ID : 10
Format : UTF-8
Codec ID : S_TEXT/UTF8
Codec ID/Info : UTF-8 Plain Text
Duration : 1 h 45 min
Bit rate : 2 b/s
Count of elements : 77
Stream size : 2.22 KiB (0%)
Title : Forced
Language : English
Default : No
Forced : No
Text #7
ID : 11
Format : UTF-8
Codec ID : S_TEXT/UTF8
Codec ID/Info : UTF-8 Plain Text
Duration : 1 h 57 min
Bit rate : 59 b/s
Count of elements : 1547
Stream size : 50.9 KiB (0%)
Title : Full
Language : English
Default : No
Forced : No
Text #8
ID : 12
Format : UTF-8
Codec ID : S_TEXT/UTF8
Codec ID/Info : UTF-8 Plain Text
Duration : 2 h 1 min
Bit rate : 80 b/s
Count of elements : 2225
Stream size : 71.4 KiB (0%)
Title : Full - SDH - Colored
Language : English
Default : No
Forced : No
Menu
00:00:00.000 : en:Chapter 01
00:07:33.203 : en:Chapter 02
00:14:56.646 : en:Chapter 03
00:23:43.255 : en:Chapter 04
00:31:05.614 : en:Chapter 05
00:38:43.071 : en:Chapter 06
00:45:26.349 : en:Chapter 07
00:53:27.329 : en:Chapter 08
01:00:22.035 : en:Chapter 09
01:07:29.254 : en:Chapter 10
01:12:55.162 : en:Chapter 11
01:22:12.344 : en:Chapter 12
01:29:49.092 : en:Chapter 13
01:36:47.802 : en:Chapter 14
01:42:08.581 : en:Chapter 15
01:53:55.912 : en:Chapter 16
01:58:00.699 : en:Chapter 17
LAVHALAR
Profil ShX
Xabarlarni ko‘rsatish:    

Hozirgi vaqt: 01-Iyun 21:18

Vaqtlar farqi: UTC + 5



Siz mavzu yaratishingiz mumkin emas
Siz xabarlarga javob qaytarishingiz mumkin emas
Siz o‘z xabarlaringizni tahrirlashingiz mumkin emas
Siz o‘z xabarlaringizni o‘chirishingiz mumkin emas
Siz so‘rovlarda ovoz berishingiz mumkin emas
Siz xabalarga fayllarni biriktirishingiz mumkin emas
Siz fayllarni ko‘chirishingiz mumkin emas