˂
˃
Tarqatmalar statistikasi
Ko‘chirmoqdaman: [ 3 ]
Ko‘chirib bo‘ldim: [ 23 ]
 
     
 
 

#Maksadjon_17 ®

Jins:
Yigit
Staj:
10 oy 3 kun
Xabarlar:
19

Qayerdan: Namangan, Chartak

Taqiq:

Talonchilik / Marauders (Steven C.Miller)[2016, Triller, jinoyatchilik, BDRip 720p] iTunes
--Chiqqan yili: 2016
Davlat: Kanada
Janr: Triller, jinoyatchilik
Davomiyligi: 01:47:07-Tarjima: Professional (dublyaj qilingan)
Tarjima 2: Professional (dublyaj qilingan)-Rejissyor: Steven C. Miller-Rollarda: Bryus Uillis, Kristofer Meloni, Deyv Batista, Adrian Grenier, Lidiya Xull, Tayler Jon Olson, Kristofer Rob Bouen, Richie Chance, Danny A. Abekeyser.-Tavsif: FBI agentining bankni talagan va o'g'irlangan pullarning hammasini xayriya ishlariga bergan jinoyatchilar iziga hujum qilgani haqida hikoya. Tergov qanchalik uzoq davom etsa, qahramon shunchaki bank egasining o'z sirlariga ega ekaniga amin bo'ladi.-Videoning sifati: BDRip
Video format: MKV
Video: AVC, 2543 Kb/s, 1280x536, 23.976 fps
Audio: AAC, 256 Kb/s, 2 ch, 48.0 kHz Uzbek | My5 Tv Professional
Audio 2: AC3, 384 Kb/s, 6 ch, 48.0 kHz Russian | iTunes
Subtitrlar: mavjud emas-

Media Info

General
Unique ID : 57951186909818886694223646072142738717 (0x2B98FE1C3A9EFC540F7FE33BEE52B51D)
Complete name : D:\TorrentTracker\02) Talonchilik.2016[BDRip 720p] by #Maksadjon_17.mkv
Format : Matroska
Format version : Version 4
File size : 2.38 GiB
Duration : 1 h 47 min
Overall bit rate : 3 183 kb/s
Encoded date : UTC 2020-04-27 17:34:41
Writing application : mkvmerge v38.0.0 ('The Silent Type') 64-bit
Writing library : libebml v1.3.9 + libmatroska v1.5.2
Video
ID : 1
Format : AVC
Format/Info : Advanced Video Codec
Format profile : High@L3.1
Format settings : CABAC / 4 Ref Frames
Format settings, CABAC : Yes
Format settings, Reference frames : 4 frames
Codec ID : V_MPEG4/ISO/AVC
Duration : 1 h 47 min
Bit rate : 2 543 kb/s
Width : 1 280 pixels
Height : 536 pixels
Display aspect ratio : 2.40:1
Frame rate mode : Constant
Frame rate : 23.976 (24000/1001) FPS
Color space : YUV
Chroma subsampling : 4:2:0
Bit depth : 8 bits
Scan type : Progressive
Bits/(Pixel*Frame) : 0.155
Stream size : 1.90 GiB (80%)
Writing library : x264 core 142 r2495 6a301b6
Encoding settings : cabac=1 / ref=3 / deblock=1:0:0 / analyse=0x3:0x113 / me=hex / subme=7 / psy=1 / psy_rd=1.00:0.00 / mixed_ref=1 / me_range=16 / chroma_me=1 / trellis=1 / 8x8dct=1 / cqm=0 / deadzone=21,11 / fast_pskip=1 / chroma_qp_offset=-2 / threads=18 / lookahead_threads=3 / sliced_threads=0 / nr=0 / decimate=1 / interlaced=0 / bluray_compat=0 / constrained_intra=0 / bframes=3 / b_pyramid=2 / b_adapt=1 / b_bias=0 / direct=1 / weightb=1 / open_gop=0 / weightp=2 / keyint=250 / keyint_min=23 / scenecut=40 / intra_refresh=0 / rc_lookahead=40 / rc=crf / mbtree=1 / crf=18.0 / qcomp=0.60 / qpmin=0 / qpmax=69 / qpstep=4 / vbv_maxrate=4000 / vbv_bufsize=6000 / crf_max=0.0 / nal_hrd=none / filler=0 / ip_ratio=1.40 / aq=1:1.00
Language : English
Default : Yes
Forced : No
Color range : Limited
Color primaries : BT.709
Transfer characteristics : BT.709
Matrix coefficients : BT.709
Audio #1
ID : 2
Format : AAC LC
Format/Info : Advanced Audio Codec Low Complexity
Codec ID : A_AAC-2
Duration : 1 h 47 min
Bit rate : 253 kb/s
Channel(s) : 2 channels
Channel layout : L R
Sampling rate : 48.0 kHz
Frame rate : 46.875 FPS (1024 SPF)
Compression mode : Lossy
Stream size : 194 MiB (8%)
Title : Audio #0 Uzbek | MY5 TV
Language : Uzbek
Default : No
Forced : Yes
Audio #2
ID : 3
Format : AC-3
Format/Info : Audio Coding 3
Commercial name : Dolby Digital
Codec ID : A_AC3
Duration : 1 h 47 min
Bit rate mode : Constant
Bit rate : 384 kb/s
Channel(s) : 6 channels
Channel layout : L R C LFE Ls Rs
Sampling rate : 48.0 kHz
Frame rate : 31.250 FPS (1536 SPF)
Compression mode : Lossy
Stream size : 294 MiB (12%)
Title : Audio #1 Russian | iTunes
Language : Russian
Service kind : Complete Main
Default : Yes
Forced : No
Menu
00:00:00.000 : :00:00:00.000
00:05:19.402 : :00:05:19.402
00:11:57.717 : :00:11:57.717
00:17:46.107 : :00:17:46.107
00:24:42.648 : :00:24:42.648
00:30:33.874 : :00:30:33.874
00:39:07.679 : :00:39:07.679
00:46:14.981 : :00:46:14.981
00:51:49.356 : :00:51:49.356
00:55:58.272 : :00:55:58.272
01:02:08.016 : :01:02:08.016
01:09:21.699 : :01:09:21.699
01:16:38.594 : :01:16:38.594
01:22:48.839 : :01:22:48.839
01:28:22.172 : :01:28:22.172
01:34:08.351 : :01:34:08.351

Lavhalar

Profil ShX
Xabarlarni ko‘rsatish:    

Hozirgi vaqt: 01-Iyun 20:17

Vaqtlar farqi: UTC + 5



Siz mavzu yaratishingiz mumkin emas
Siz xabarlarga javob qaytarishingiz mumkin emas
Siz o‘z xabarlaringizni tahrirlashingiz mumkin emas
Siz o‘z xabarlaringizni o‘chirishingiz mumkin emas
Siz so‘rovlarda ovoz berishingiz mumkin emas
Siz xabalarga fayllarni biriktirishingiz mumkin emas
Siz fayllarni ko‘chirishingiz mumkin emas