˂
˃
Tarqatmalar statistikasi
Ko‘chirmoqdaman: [ 2 ]
Ko‘chirib bo‘ldim: [ 28 ]
 
     
 
 

Ahmadullo ®

Jins:
Yigit
Staj:
7 oy 9 kun
Xabarlar:
72
Taqiq:

Bruklinda yolg'iz / Сиротский Бруклин / Motherless Brooklyn
--Chiqqan yili: 2019
Davlat: AQSH
Janr: Drama, jinoyat, detektiv
Davomiyligi: 02:24:21
Tarjima: Professional O'zbek tilida O'zbekistonTV
Tarjima 2: Professional (Dublyaj) Rus tilida
Tarjima 3: Professional (Original) Ingliz tilida--Rejissyor: Edvard Norton--Rollarda: Edvard Norton, Gugou Mbata-Rowe, Alec Baldwin, Bobby Cannavale, Willem Defoe, Bryus Uillis, Ethan Sapley, Cherry Jones, Dallas Roberts, Josh Pace, Radu Spingel, Fisher Stevens, Piter Gray Lyuis, Robert Wizd, Maykl Kennet Uilyams, Isaias J. Tompsoni--Film Haqida: Lionel Essrog, Tourette sindromi bilan yolg'iz yashovchi detektiv, uning ustozi va yagona do'sti Frank Minnaning o'ldirilishi bo'yicha tergovni boshlashga qaror qildi. U Nyu-Yorkning o'zida kuchlar muvozanatini saqlaydigan puxta yashiringan sirlarni ochib tashlash uchun faqat bir nechta maslahatlarga va maqsadga intilishga qodir. Tergov uni Garlemdagi jaz klublariga olib boradi, Bruklindagi xavfli xarobalar va nihoyat metropolning siyosiy elitasining zargarlik salonlari. U o'z do'stining ismini tozalash va o'zini qutqara oladigan ayolni qutqarish uchun jinoyatchilarni, korruptsiyani va shaharning eng xavfli odamini chaqiradi.--Videoning sifati: BDRip 1080p
Video format: MKV-Video: HEVC Video (H265) 1920x1040 23.976fps 1 773 kb/s
Audio: AAC 44000Hz stereo O'zbek tili
Audio 2: Dolby AC3 48000Hz 6ch 384kbps Rus tili
Audio 2: AAC 48000Hz 6ch Ingliz tili
Subtitrlar: Rus tili,Ingliz tili--

Media Info

General
Unique ID : 114199257912203837842394170539596528328 (0x55E9FA1F8E15F6829C193E534C9B3AC8)
Complete name : K:\MEDIA\HD MOVIES\TARJIMA HD x264 x265\2019-2020\Bruklinda.yolg'iz.2019.BDRip.1080p.HEVC.10bit.mkv
Format : Matroska
Format version : Version 4
File size : 2.58 GiB
Duration : 2 h 24 min
Overall bit rate : 2 560 kb/s
Movie name : Motherless.Brooklyn.2019.BDRip 1080p HEVC 10bit.Alltor.mkv
Encoded date : UTC 2020-04-21 02:21:21
Writing application : mkvmerge v21.0.0 ('Tardigrades Will Inherit The Earth') 64-bit
Writing library : libebml v1.3.5 + libmatroska v1.4.8
Video
ID : 1
Format : HEVC
Format/Info : High Efficiency Video Coding
Format profile : Main 10@L4@Main
Codec ID : V_MPEGH/ISO/HEVC
Duration : 2 h 24 min
Bit rate : 1 773 kb/s
Width : 1 920 pixels
Height : 1 040 pixels
Display aspect ratio : 1.85:1
Frame rate mode : Constant
Frame rate : 23.976 (24000/1001) FPS
Color space : YUV
Chroma subsampling : 4:2:0
Bit depth : 10 bits
Bits/(Pixel*Frame) : 0.037
Stream size : 1.79 GiB (69%)
Default : Yes
Forced : No
Audio #1
ID : 2
Format : AAC LC
Format/Info : Advanced Audio Codec Low Complexity
Codec ID : A_AAC-2
Duration : 2 h 24 min
Bit rate : 192 kb/s
Channel(s) : 2 channels
Channel layout : L R
Sampling rate : 44.1 kHz
Frame rate : 43.066 FPS (1024 SPF)
Compression mode : Lossy
Stream size : 201 MiB (8%)
Title : uzb by MUAH
Language : Russian
Default : Yes
Forced : Yes
Audio #2
ID : 3
Format : AC-3
Format/Info : Audio Coding 3
Commercial name : Dolby Digital
Codec ID : A_AC3
Duration : 2 h 24 min
Bit rate mode : Constant
Bit rate : 384 kb/s
Channel(s) : 6 channels
Channel layout : L R C LFE Ls Rs
Sampling rate : 48.0 kHz
Frame rate : 31.250 FPS (1536 SPF)
Bit depth : 16 bits
Compression mode : Lossy
Stream size : 396 MiB (15%)
Title : Dub iTunes
Language : Russian
Service kind : Complete Main
Default : No
Forced : No
Audio #3
ID : 4
Format : AAC LC SBR
Format/Info : Advanced Audio Codec Low Complexity with Spectral Band Replication
Commercial name : HE-AAC
Format settings : Explicit
Codec ID : A_AAC-2
Duration : 2 h 24 min
Bit rate : 204 kb/s
Channel(s) : 6 channels
Channel layout : C L R Ls Rs LFE
Sampling rate : 48.0 kHz
Frame rate : 23.438 FPS (2048 SPF)
Compression mode : Lossy
Delay relative to video : 23 ms
Stream size : 210 MiB (8%)
Title : Original
Language : English
Default : No
Forced : No
Text #1
ID : 5
Format : UTF-8
Codec ID : S_TEXT/UTF8
Codec ID/Info : UTF-8 Plain Text
Duration : 20 s 24 ms
Bit rate : 25 b/s
Count of elements : 2
Stream size : 64.0 Bytes (0%)
Title : uzb by MUAH
Language : Russian
Default : Yes
Forced : Yes
Text #2
ID : 6
Format : UTF-8
Codec ID : S_TEXT/UTF8
Codec ID/Info : UTF-8 Plain Text
Duration : 2 h 23 min
Bit rate : 4 b/s
Count of elements : 71
Stream size : 4.41 KiB (0%)
Title : Forced
Language : Russian
Default : No
Forced : No
Text #3
ID : 7
Format : UTF-8
Codec ID : S_TEXT/UTF8
Codec ID/Info : UTF-8 Plain Text
Duration : 2 h 23 min
Bit rate : 135 b/s
Count of elements : 2356
Stream size : 142 KiB (0%)
Title : Full
Language : Russian
Default : No
Forced : No
Text #4
ID : 8
Format : UTF-8
Codec ID : S_TEXT/UTF8
Codec ID/Info : UTF-8 Plain Text
Duration : 2 h 16 min
Bit rate : 80 b/s
Count of elements : 2333
Stream size : 80.5 KiB (0%)
Language : English
Default : No
Forced : No
Text #5
ID : 9
Format : UTF-8
Codec ID : S_TEXT/UTF8
Codec ID/Info : UTF-8 Plain Text
Duration : 2 h 16 min
Bit rate : 84 b/s
Count of elements : 2463
Stream size : 84.7 KiB (0%)
Title : SDH
Language : English
Default : No
Forced : No
Text #6
ID : 10
Format : UTF-8
Codec ID : S_TEXT/UTF8
Codec ID/Info : UTF-8 Plain Text
Duration : 2 h 23 min
Bit rate : 4 b/s
Count of elements : 70
Stream size : 4.34 KiB (0%)
Title : Forced
Language : Russian
Default : No
Forced : No
Text #7
ID : 11
Format : UTF-8
Codec ID : S_TEXT/UTF8
Codec ID/Info : UTF-8 Plain Text
Duration : 2 h 23 min
Bit rate : 135 b/s
Count of elements : 2355
Stream size : 142 KiB (0%)
Title : Full
Language : Russian
Default : No
Forced : No
Text #8
ID : 12
Format : UTF-8
Codec ID : S_TEXT/UTF8
Codec ID/Info : UTF-8 Plain Text
Duration : 2 h 15 min
Bit rate : 80 b/s
Count of elements : 2332
Stream size : 80.4 KiB (0%)
Title : Full
Language : English
Default : No
Forced : No
Text #9
ID : 13
Format : UTF-8
Codec ID : S_TEXT/UTF8
Codec ID/Info : UTF-8 Plain Text
Duration : 2 h 16 min
Bit rate : 84 b/s
Count of elements : 2463
Stream size : 84.7 KiB (0%)
Title : Full - SDH
Language : English
Default : No
Forced : No
Menu
00:00:00.000 : en:Chapter 01
00:09:57.847 : en:Chapter 02
00:19:20.326 : en:Chapter 03
00:29:14.586 : en:Chapter 04
00:38:47.575 : en:Chapter 05
00:46:33.958 : en:Chapter 06
00:54:01.822 : en:Chapter 07
01:02:12.604 : en:Chapter 08
01:08:42.618 : en:Chapter 09
01:17:48.205 : en:Chapter 10
01:26:55.919 : en:Chapter 11
01:34:07.350 : en:Chapter 12
01:41:25.705 : en:Chapter 13
01:50:29.289 : en:Chapter 14
02:00:21.005 : en:Chapter 15
02:07:02.824 : en:Chapter 16
02:17:16.603 : en:Chapter 17
LAVHALAR
Profil ShX
Xabarlarni ko‘rsatish:    

Hozirgi vaqt: 01-Iyun 21:05

Vaqtlar farqi: UTC + 5



Siz mavzu yaratishingiz mumkin emas
Siz xabarlarga javob qaytarishingiz mumkin emas
Siz o‘z xabarlaringizni tahrirlashingiz mumkin emas
Siz o‘z xabarlaringizni o‘chirishingiz mumkin emas
Siz so‘rovlarda ovoz berishingiz mumkin emas
Siz xabalarga fayllarni biriktirishingiz mumkin emas
Siz fayllarni ko‘chirishingiz mumkin emas