˂
˃
Tarqatmalar statistikasi
Ko‘chirmoqdaman: [ 1 ]
Ko‘chirib bo‘ldim: [ 32 ]
 
     
 
 

Ahmadullo ®

Jins:
Yigit
Staj:
7 oy 9 kun
Xabarlar:
72
Taqiq:

Shiddat / Ускорение / Momentum
--Chiqqan yili: 2015
Davlat: AQSH
Janr: Jangari, triller
Davomiyligi: 01:36:00
Tarjima: Professional My5TV O'zbek tilida
Tarjima 2: Professional (Dublyaj) Rus tilida--Rejissyor: Stephen S. Campanelli--Rollarda: Olga Kurylenko, Morgan Freeman, Jeyms Purefoy, Dylan Edi, Jenna Saras, Li Ann Summers, Kolin Moss, Aidan Uaytok, Marian Frizzell, Brendan Myurrey, Liza Leonard, Abbi Vayim--Film Haqida: Aleks, tajribali o'g'ri, o'zining so'nggi talon-tarojini qilishga rozi ... Ammo hamma reja bo'yicha ketayotgani yo'q. Endi unga va shafqatsiz dushman xavf solmoqda. Muvaffaqiyatsiz talonchilik yagona muammo emas. U maxfiy xalqaro sindikatga yo'l olmoqchi bo'lib, olmosdan ham muhimroq narsani qidirdi. Bundan buyon Aleks uchun tirik qolishning yagona yo'li - qochish. Va iloji boricha tezroq...--Videoning sifati: BDRip-AVC
Video format: MKV-Video: H264 Video 1032x432 23.976fps 1 716 kb/s
Audio: AAC 44000Hz stereo O'zbek tili
Audio 2: AC3 48000Hz 6ch 448kbps Rus tili
Subtitrlar: Ingliz tilida--

Media Info

General
Unique ID : 282586720240440965651726407352261878128 (0xD49838FEEABF059F496E8E3C76392170)
Complete name : K:\MEDIA\HD MOVIES\TARJIMA HD x264 x265\2019-2020\Shiddat.2015.BDRip-AVC.mkv
Format : Matroska
Format version : Version 4
File size : 1.58 GiB
Duration : 1 h 36 min
Overall bit rate : 2 361 kb/s
Movie name : Momentum (2015) (New-Team) (Rip by Stalker oK)
Encoded date : UTC 2020-04-23 01:14:40
Writing application : mkvmerge v21.0.0 ('Tardigrades Will Inherit The Earth') 64-bit
Writing library : libebml v1.3.5 + libmatroska v1.4.8
Video
ID : 1
Format : AVC
Format/Info : Advanced Video Codec
Format profile : High@L4.1
Format settings : CABAC / 13 Ref Frames
Format settings, CABAC : Yes
Format settings, Reference fra : 13 frames
Codec ID : V_MPEG4/ISO/AVC
Duration : 1 h 36 min
Bit rate : 1 716 kb/s
Width : 1 032 pixels
Height : 432 pixels
Display aspect ratio : 2.40:1
Frame rate mode : Constant
Frame rate : 23.976 (24000/1001) FPS
Color space : YUV
Chroma subsampling : 4:2:0
Bit depth : 8 bits
Scan type : Progressive
Bits/(Pixel*Frame) : 0.161
Stream size : 1.15 GiB (73%)
Title : uzb by MuhammadAhmad
Writing library : x264 core 148 r2638 7599210
Encoding settings : cabac=1 / ref=13 / deblock=1:-3:-3 / analyse=0x3:0x133 / me=umh / subme=11 / psy=1 / psy_rd=1.00:0.10 / mixed_ref=1 / me_range=48 / chroma_me=1 / trellis=2 / 8x8dct=1 / cqm=0 / deadzone=21,11 / fast_pskip=0 / chroma_qp_offset=-3 / threads=12 / lookahead_threads=3 / sliced_threads=0 / nr=0 / decimate=0 / interlaced=0 / bluray_compat=0 / constrained_intra=0 / bframes=15 / b_pyramid=2 / b_adapt=2 / b_bias=0 / direct=3 / weightb=1 / open_gop=0 / weightp=2 / keyint=240 / keyint_min=23 / scenecut=40 / intra_refresh=0 / rc_lookahead=60 / rc=2pass / mbtree=0 / bitrate=1716 / ratetol=1.0 / qcomp=0.70 / qpmin=0 / qpmax=69 / qpstep=4 / cplxblur=20.0 / qblur=0.5 / vbv_maxrate=50000 / vbv_bufsize=62500 / nal_hrd=none / filler=0 / ip_ratio=1.40 / pb_ratio=1.30 / aq=3:0.90
Default : Yes
Forced : No
Audio #1
ID : 2
Format : AAC LC
Format/Info : Advanced Audio Codec Low Complexity
Codec ID : A_AAC-2
Duration : 1 h 36 min
Bit rate : 196 kb/s
Channel(s) : 2 channels
Channel layout : L R
Sampling rate : 44.1 kHz
Frame rate : 43.066 FPS (1024 SPF)
Compression mode : Lossy
Stream size : 135 MiB (8%)
Title : uzb by MUAH
Language : Russian
Default : Yes
Forced : Yes
Audio #2
ID : 3
Format : AC-3
Format/Info : Audio Coding 3
Commercial name : Dolby Digital
Codec ID : A_AC3
Duration : 1 h 35 min
Bit rate mode : Constant
Bit rate : 448 kb/s
Channel(s) : 6 channels
Channel layout : L R C LFE Ls Rs
Sampling rate : 48.0 kHz
Frame rate : 31.250 FPS (1536 SPF)
Bit depth : 16 bits
Compression mode : Lossy
Stream size : 307 MiB (19%)
Language : Russian
Service kind : Complete Main
Default : No
Forced : No
Text #1
ID : 4
Format : UTF-8
Codec ID : S_TEXT/UTF8
Codec ID/Info : UTF-8 Plain Text
Duration : 20 s 24 ms
Bit rate : 25 b/s
Count of elements : 2
Stream size : 64.0 Bytes (0%)
Title : uzb by MUAH
Language : Russian
Default : Yes
Forced : Yes
Text #2
ID : 5
Format : UTF-8
Codec ID : S_TEXT/UTF8
Codec ID/Info : UTF-8 Plain Text
Duration : 1 h 28 min
Bit rate : 46 b/s
Count of elements : 1201
Stream size : 30.3 KiB (0%)
Language : English
Default : No
Forced : No
Menu
00:00:00.000 : en:Chapter 1
00:11:59.427 : en:Chapter 2
00:23:04.424 : en:Chapter 3
00:33:35.638 : en:Chapter 4
00:43:34.695 : en:Chapter 5
00:54:18.964 : en:Chapter 6
01:02:51.392 : en:Chapter 7
01:14:14.867 : en:Chapter 8
01:28:55.705 : en:Chapter 9
LAVHALAR
Profil ShX
Xabarlarni ko‘rsatish:    

Hozirgi vaqt: 01-Iyun 19:57

Vaqtlar farqi: UTC + 5



Siz mavzu yaratishingiz mumkin emas
Siz xabarlarga javob qaytarishingiz mumkin emas
Siz o‘z xabarlaringizni tahrirlashingiz mumkin emas
Siz o‘z xabarlaringizni o‘chirishingiz mumkin emas
Siz so‘rovlarda ovoz berishingiz mumkin emas
Siz xabalarga fayllarni biriktirishingiz mumkin emas
Siz fayllarni ko‘chirishingiz mumkin emas