˂
˃
Tarqatmalar statistikasi
Ko‘chirib bo‘ldim: [ 8 ]
 
     
 
 

UmarShoh ®

Jins:
Yigit
Staj:
2 yil 3 oy
Xabarlar:
431
Taqiq:

- Trollar / Trolls
--
Chiqqan yili: 2016
Davlat: AQSH
Janr: multfilm, musiqa, fentezi, komediya, sarguzasht, oilaviy
Davomiyligi: 01:32:27
Tarjima:
To'liq dublyaj qilingan [My5 Uzb]
Subtitrlar: Inglizcha, Ruscha.-Rejissyorlar: Uolt Dorn, Mike Mitchell / Walt Dohrn, Mike Mitchell--Rollarni ovozlashtirganlar: Anna Kendrik, Jastin Timberleyk, Zoi Deshanel, Kristofer Mins-Plasse, Kristin Baranski, Rassel Brend va boshqalar...--Tavsif: Rosochka, dunyodagi eng buyuk ajdodlaridan ajralib turadigan hayratlanarli bir sarguzashtga tushib, Tsvetan ismli dunyodagi eng qorong'i trol bilan o'z do'stlarini dahshatli bergen va ularning lideri King Kingfisher keksalaridan qutqarish uchun o'zining jasur missiyasida muvaffaqiyatga erishish uchun kuchlar bilan qo'shildi. Rozohekning ajablantiradigan sarguzashtlari uning kuchini sinab ko'radi, haqiqiy mohiyatini namoyon qiladi va har qanday vaqtda qo'shiqqa aylanish qobiliyatini tanqid qiladi...-- -Sifat: BDRip HEVC 10bit
Format: MKV
Video: HEVC, 1920x816, 4298 kbps, 23,976 fps
Audio №1: O`zbek tilida / MP3 / 2.0 / 48 kHz / 192 kbps /
Audio №2: Rus tilida / AC-3 / 5.1 / 48 kHz / 448 kbps / | iTunes|
Audio №3: Ingliz tilida / AAC / 7.1 / 48 kHz / 384 kbps /-

Media Info


General
Unique ID : 93942532443517611748015441290722183798 (0x46ACAC72EA1392E5088C67A9B56E8A76)
Complete name : D:\Media\Multfilmlar\Multfilmlar\043) Trolls [ 2016 BDRip 1080p x265 10bit ] O`zbek tilida.mkv
Format : Matroska
Format version : Version 4
File size : 3.45 GiB
Duration : 1 h 32 min
Overall bit rate : 5 340 kb/s
Movie name : Trolls (2016) - HEVC.CLUB
Encoded date : UTC 2020-04-23 13:08:52
Writing application : mkvmerge v45.0.0 ('Heaven in Pennies') 64-bit
Writing library : libebml v1.3.10 + libmatroska v1.5.2
Cover : Yes
Attachments : Cover.jpg
Video
ID : 1
Format : HEVC
Format/Info : High Efficiency Video Coding
Format profile : Main 10@L4.1@High
Codec ID : V_MPEGH/ISO/HEVC
Duration : 1 h 32 min
Bit rate : 4 298 kb/s
Width : 1 920 pixels
Height : 816 pixels
Display aspect ratio : 2.35:1
Frame rate mode : Constant
Frame rate : 23.976 (24000/1001) FPS
Color space : YUV
Chroma subsampling : 4:2:0
Bit depth : 10 bits
Bits/(Pixel*Frame) : 0.114
Stream size : 2.78 GiB (80%)
Title : HEVC.CLUB
Writing library : x265 2.2+22-20217c8af8ac:[Windows][GCC 6.2.0][64 bit] 10bit
Encoding settings : cpuid=1173503 / frame-threads=3 / numa-pools=8 / wpp / no-pmode / no-pme / no-psnr / ssim / log-level=2 / input-csp=1 / input-res=1920x816 / interlace=0 / total-frames=0 / level-idc=41 / high-tier=1 / uhd-bd=0 / ref=6 / no-allow-non-conformance / repeat-headers / annexb / aud / hrd / info / hash=0 / no-temporal-layers / open-gop / min-keyint=23 / keyint=250 / bframes=8 / b-adapt=2 / b-pyramid / bframe-bias=0 / rc-lookahead=60 / lookahead-slices=1 / scenecut=40 / no-intra-refresh / ctu=64 / min-cu-size=8 / no-rect / no-amp / max-tu-size=32 / tu-inter-depth=3 / tu-intra-depth=3 / limit-tu=0 / rdoq-level=1 / signhide / no-tskip / nr-intra=0 / nr-inter=0 / no-constrained-intra / no-strong-intra-smoothing / max-merge=2 / limit-refs=3 / no-limit-modes / me=1 / subme=4 / merange=64 / temporal-mvp / weightp / weightb / no-analyze-src-pics / deblock=-3:-3 / no-sao / no-sao-non-deblock / rd=4 / no-early-skip / no-rskip / no-fast-intra / no-tskip-fast / no-cu-lossless / no-b-intra / rdpenalty=0 / psy-rd=1.60 / psy-rdoq=2.30 / no-rd-refine / analysis-mode=0 / no-lossless / cbqpoffs=0 / crqpoffs=0 / rc=crf / crf=21.0 / qcomp=0.90 / qpstep=6 / stats-write=0 / stats-read=0 / vbv-maxrate=50000 / vbv-bufsize=50000 / vbv-init=0.9 / crf-max=0.0 / crf-min=0.0 / ipratio=1.50 / pbratio=1.00 / aq-mode=1 / aq-strength=0.20 / no-cutree / zone-count=0 / no-strict-cbr / qg-size=32 / no-rc-grain / qpmax=69 / qpmin=0 / sar=1 / overscan=0 / videoformat=5 / range=0 / colorprim=2 / transfer=2 / colormatrix=1 / chromaloc=0 / display-window=0 / max-cll=0,0 / min-luma=0 / max-luma=1023 / log2-max-poc-lsb=8 / vui-timing-info / vui-hrd-info / slices=1 / opt-qp-pps / opt-ref-list-length-pps / no-multi-pass-opt-rps / scenecut-bias=0.05 / no-opt-cu-delta-qp / no-aq-motion
Default : Yes
Forced : Yes
Color range : Limited
Matrix coefficients : BT.709
Audio #1
ID : 3
Format : AC-3
Format/Info : Audio Coding 3
Commercial name : Dolby Digital
Codec ID : A_AC3
Duration : 1 h 32 min
Bit rate mode : Constant
Bit rate : 448 kb/s
Channel(s) : 6 channels
Channel layout : L R C LFE Ls Rs
Sampling rate : 48.0 kHz
Frame rate : 31.250 FPS (1536 SPF)
Compression mode : Lossy
Stream size : 296 MiB (8%)
Title : Дублированный
Language : Russian
Service kind : Complete Main
Default : Yes
Forced : No
Audio #2
ID : 4
Format : AAC LC
Format/Info : Advanced Audio Codec Low Complexity
Codec ID : A_AAC-2
Duration : 1 h 32 min
Bit rate : 384 kb/s
Channel(s) : 8 channels
Channel layout : C L R Ls Rs Lb Rb LFE
Sampling rate : 48.0 kHz
Frame rate : 46.875 FPS (1024 SPF)
Compression mode : Lossy
Delay relative to video : 20 ms
Stream size : 259 MiB (7%)
Title : Orginal
Language : English
Default : No
Forced : No
Audio #3
ID : 6
Format : MPEG Audio
Format version : Version 1
Format profile : Layer 3
Format settings : Joint stereo / MS Stereo
Codec ID : A_MPEG/L3
Codec ID/Hint : MP3
Duration : 1 h 32 min
Bit rate mode : Constant
Bit rate : 192 kb/s
Channel(s) : 2 channels
Sampling rate : 44.1 kHz
Frame rate : 38.281 FPS (1152 SPF)
Compression mode : Lossy
Stream size : 127 MiB (4%)
Title : My5 (UmarShoh_FL)
Writing library : LAME3.97
Language : Uzbek
Default : No
Forced : No
Text #1
ID : 2
Format : UTF-8
Codec ID : S_TEXT/UTF8
Codec ID/Info : UTF-8 Plain Text
Duration : 1 h 31 min
Bit rate : 98 b/s
Count of elements : 1358
Stream size : 66.0 KiB (0%)
Title : Full
Language : Russian
Default : No
Forced : No
Text #2
ID : 5
Format : VobSub
Muxing mode : zlib
Codec ID : S_VOBSUB
Codec ID/Info : Picture based subtitle format used on DVDs
Duration : 1 h 23 min
Bit rate : 11.0 kb/s
Count of elements : 1386
Stream size : 6.61 MiB (0%)
Language : English
Default : No
Forced : No
Menu #1
00:00:00.000 : en:
00:02:20.474 : en:
00:06:22.924 : en:
00:10:42.642 : en:
00:13:26.597 : en:
00:18:34.363 : en:
00:22:12.790 : en:
00:25:41.081 : en:
00:28:53.732 : en:
00:32:55.098 : en:
00:36:33.107 : en:
00:40:56.787 : en:
00:44:21.659 : en:
00:47:27.970 : en:
00:51:27.084 : en:
00:55:45.675 : en:
00:59:58.761 : en:
01:03:17.084 : en:
01:05:17.663 : en:
01:07:56.530 : en:
01:10:25.262 : en:
01:13:31.657 : en:
01:16:21.243 : en:
01:21:44.733 : en:
Menu #2
00:00:00.000 : en:Chapter 01
00:02:20.473 : en:Chapter 02
00:06:22.924 : en:Chapter 03
00:10:42.642 : en:Chapter 04
00:13:26.597 : en:Chapter 05
00:18:34.363 : en:Chapter 06
00:22:13.165 : en:Chapter 07
00:25:40.872 : en:Chapter 08
00:28:53.732 : en:Chapter 09
00:32:55.098 : en:Chapter 10
00:36:33.107 : en:Chapter 11
00:40:56.787 : en:Chapter 12
00:44:21.659 : en:Chapter 13
00:47:27.970 : en:Chapter 14
00:51:27.084 : en:Chapter 15
00:55:45.675 : en:Chapter 16
00:59:58.761 : en:Chapter 17
01:03:17.084 : en:Chapter 18
01:05:17.663 : en:Chapter 19
01:07:56.906 : en:Chapter 20
01:10:25.262 : en:Chapter 21
01:13:31.657 : en:Chapter 22
01:16:21.243 : en:Chapter 23
01:21:45.191 : en:Chapter 24

Miniatyura


Profil ShX
Xabarlarni ko‘rsatish:    

Hozirgi vaqt: 05-Iyun 19:14

Vaqtlar farqi: UTC + 5



Siz mavzu yaratishingiz mumkin emas
Siz xabarlarga javob qaytarishingiz mumkin emas
Siz o‘z xabarlaringizni tahrirlashingiz mumkin emas
Siz o‘z xabarlaringizni o‘chirishingiz mumkin emas
Siz so‘rovlarda ovoz berishingiz mumkin emas
Siz xabalarga fayllarni biriktirishingiz mumkin emas
Siz fayllarni ko‘chirishingiz mumkin emas