˂
˃
Tarqatmalar statistikasi
Ko‘chirmoqdaman: [ 2 ]
Ko‘chirib bo‘ldim: [ 6 ]
 
     
 
 

logan7272 ®

Jins:
Yigit
Staj:
2 yil 2 oy
Xabarlar:
77

Qayerdan: Namangan

Taqiq:

Tom va Jerri Oltin To'plami (1940-1948) / Tom & Jerry Golden Collection (1940-1948)- -Chiqarilgan yil: 1940-1948
Davlat: AQSH
Janr: multfilm, komediya, oilaviy
Davomiyligi: 00:07:09-00:09:16
Tarjima: Ingliz tlilda
Subtitrlar: Inglizcha-Rejissyor: Villiam Hanna, Jozef Barbera / William Hanna, Joseph Barbera-Tavsif: Mushuk Tom va kichkina sichqon Jerri - butun er yuzida mashhur bo'lgan juftlik. Bir necha o'n yillar davomida Tom Jerrini tinimsiz qiyinchilik bilan quvib kelmoqda. Tom Jerrini qo'lga olish uchun borgan sari ko'proq makkorona hiyla-nayranglarni o'ylab topmoqda, ammo sichqon har doim ham nayranglaridan qutilib qolmoqda.-Format: MKV
Video: HEVC, 960x720, 593 kbps, 23,976 fps
Audio: AAC LC-SBR, 41 kbps, 1 ch | Inglizcha

MediaInfo

General
Unique ID : 335617804202992652965726346377784700797 (0xFC7DA34D4F4D919DE4DFD4F19333AF7D)
Complete name : C:\Tom.and.Jerry.The.Golden.Collection.Volume.One.1940-1948.720p.BrRip.x265.HEVC-PSA\Tom.and.Jerry.E08.Fine.Feathered.Friend.720p.BrRip.x265.HEVC-PSA.mkv
Format : Matroska
Format version : Version 4 / Version 2
File size : 36.0 MiB
Duration : 7 min 55 s
Overall bit rate : 635 kb/s
Movie name : PSArips.com | Tom.and.Jerry.E08.Fine.Feathered.Friend.720p.BrRip.x265.HEVC-PSA
Encoded date : UTC 2018-12-27 08:48:01
Writing application : mkvmerge v29.0.0 ('Like It Or Not') 64-bit
Writing library : libebml v1.3.6 + libmatroska v1.4.9
Video
ID : 1
Format : HEVC
Format/Info : High Efficiency Video Coding
Format profile : Main@L3.1@Main
Codec ID : V_MPEGH/ISO/HEVC
Duration : 7 min 53 s
Bit rate : 593 kb/s
Width : 960 pixels
Height : 720 pixels
Display aspect ratio : 4:3
Frame rate mode : Constant
Frame rate : 23.976 (24000/1001) FPS
Color space : YUV
Chroma subsampling : 4:2:0
Bit depth : 8 bits
Bits/(Pixel*Frame) : 0.036
Stream size : 33.5 MiB (93%)
Default : Yes
Forced : No
Audio
ID : 2
Format : AAC
Format/Info : Advanced Audio Codec
Format profile : HE-AAC / LC
Codec ID : A_AAC
Duration : 7 min 55 s
Bit rate : 41.7 kb/s
Channel(s) : 1 channel
Channel positions : Front: C
Sampling rate : 48.0 kHz / 24.0 kHz
Frame rate : 23.438 FPS (1024 spf)
Compression mode : Lossy
Delay relative to video : 23 ms
Stream size : 2.36 MiB (7%)
Language : English
Default : Yes
Forced : No
Text
ID : 3
Format : UTF-8
Codec ID : S_TEXT/UTF8
Codec ID/Info : UTF-8 Plain Text
Duration : 5 s 0 ms
Bit rate : 65 b/s
Count of elements : 1
Stream size : 41.0 Bytes (0%)
Language : English
Default : Yes
Forced : No

Treklist

001.Mushuk nima jazolandi / (1940)
002.Kechki ovqat / (1941)
003. Rojdestvo oldidagi tun / (1941)
004. Qo'rqinchli mushuk / (1942)
005. It bizning do'stimiz emas / (1942)
006. Mehmonlarga tegmaslik kerak / (1942)
007. Keling, Skitles o'ynaymiz / (1942)
008. Yaxshi tukli do'st / / (1942)
009. Ochko'zlik nimaga olib keladi / (1943)
010. Yolg'iz sichqon / (1943)
011. Strategist sichqon / (1943)
012. Bola bo'lish oson emas / (1943)
013. mushuk-dude / (1944)
014. Mushuk millioner / (1944)
015. Tana qo'riqchisi / (1944)
016. Itning terisiga / (1944)
017. Qiyin sichqon / (1944)
018. Romantik kechki ovqat / (1945)
019. Manxettendagi sichqon / (1945)
020. Golf / (1945)
021. Birdie sevgi istaydi / (1945)
022. Jim bo'ling / (1945)
023. Tomas uchun bahor fasli / (1946)
024. Poydevori / (1946)
025. Sichqonlar uchun ov / (1946)
026. Shovqinli serenad / (1946)
027. Tom and Jerry Fishing / (1947)
028. Part-time Pal / (1947)
029. Mushuk kontserti! / (1947)
030. Doktor. Jekyll va Mr. Sichqoncha (1947)
031. Sohildagi sarguzashtlar / (1947)
032. Uydagi sichqon / (1947)
033. Ko'rinmas sichqon / (1947)
034. Do'stingizga yordam berish kerak / (1948)
035. Tinchlik shartnomasi / (1948)
036. Old, Yaxshi Tom / (1948)
037. Tom o'qituvchisi / (1948)
SKRINSHOT
Profil ShX
Xabarlarni ko‘rsatish:    

Hozirgi vaqt: 04-Iyun 03:12

Vaqtlar farqi: UTC + 5



Siz mavzu yaratishingiz mumkin emas
Siz xabarlarga javob qaytarishingiz mumkin emas
Siz o‘z xabarlaringizni tahrirlashingiz mumkin emas
Siz o‘z xabarlaringizni o‘chirishingiz mumkin emas
Siz so‘rovlarda ovoz berishingiz mumkin emas
Siz xabalarga fayllarni biriktirishingiz mumkin emas
Siz fayllarni ko‘chirishingiz mumkin emas