˂
˃
Tarqatmalar statistikasi
Ko‘chirmoqdaman: [ 3 ]
Ko‘chirib bo‘ldim: [ 29 ]
 
     
 
 

AxeL ®

Jins:
Yigit
Staj:
2 yil 2 oy
Xabarlar:
773

Qayerdan: Gronland, Norway

Taqiq:

-Doktor Dulitlning g'aroyib sarguzashtlari / Удивительное путешествие доктора Дулиттла / Dolittle- Chiqqan yili: 2020
Davlat: AQSh, Xitoy, Buyuk Britaniya
Janr: hayoliy, komediya, sarguzasht,...
Davomiyligi: 01:41:23
Tarjima:
    Rus tilida [HDRezka Studio]
    O'zbek tilida

Subtitrlar: Rus, Ingliz
-Rejissyor: Stiven Geygan | Стивен Гейган-Rollarda: Robert Dauni, Antonio Banderas, Jim Brodbent, Jessi Bakli, Garri Kollet, Emma Tompson, Rami Malek, Jon Sina,...-Tavsif: Yetti yil oldin, Viktoriya Angliyada yashagan mashhur veterinar doktor Dulitl o'z xotinidan ayrildi. Endi u o'z mulkining baland devorlari orqasida yashirincha hayot tarzini olib bormoqda. Uning to'plamidagi ekzotik hayvonlar - bu uning yagona kompaniyasi. Ammo noma'lum kasallik yosh malika hayotiga tahdid solganda, doktor Dulitl boshpanasini tark etib, afsonaviy orolga aql bovar qilmaydigan sayohatga chiqishi kerak. Malika uchun dori izlab, u shafqatsiz dushmanlar bilan jang qiladi, begona mavjudotlar bilan tanishadi va ajoyib jasorat va zukkolik ko'rsatishga majbur bo'ladi.- -Sifat: BDRip 720p HEVC 10bit
Format: MKV
Video: HEVC 1280x688 23.976 fps 1204 kbps
Audio №1: AC3 2ch 48 kHz 256 kbps [Rus tilida] HDRezka Studio
Audio №2: AC3 6ch 48 kHz 448 kbps Ingliz tilida
Audio №3: AAC 2ch 44.1 kHz 128 kbps O'zbek tilida-

Media Info

General
Unique ID                      : 21121399336578910442386416870657581441 (0xFE3D56333F8749B11A9E03ED82B6181)
Complete name                  : D:\Video files\Tarjima\Dolittle.2020.BDRip 720p HEVC 10bit.Uzb.Rus.Eng.mkv
Format                         : Matroska
Format version                 : Version 4
File size                      : 1.44 GiB
Duration                       : 1 h 41 min
Overall bit rate               : 2 039 kb/s
Movie name                     : Dolittle.2020.BDRip 720p HEVC 10bit.MVO.Alltor.mkv
Encoded date                   : UTC 2080-03-30 22:07:39
Writing application            : mkvmerge v22.0.0 ('At The End Of The World') 64-bit
Writing library                : libebml v1.3.5 + libmatroska v1.4.8
Video
ID                             : 1
Format                         : HEVC
Format/Info                    : High Efficiency Video Coding
Format profile                 : Main 10@L3.1@Main
Codec ID                       : V_MPEGH/ISO/HEVC
Duration                       : 1 h 41 min
Bit rate                       : 1 204 kb/s
Width                          : 1 280 pixels
Height                         : 688 pixels
Display aspect ratio           : 1.85:1
Frame rate mode                : Constant
Frame rate                     : 23.976 (24000/1001) FPS
Color space                    : YUV
Chroma subsampling             : 4:2:0
Bit depth                      : 10 bits
Bits/(Pixel*Frame)             : 0.057
Stream size                    : 874 MiB (59%)
Default                        : Yes
Forced                         : No
Audio #1
ID                             : 2
Format                         : AC-3
Format/Info                    : Audio Coding 3
Commercial name                : Dolby Digital
Codec ID                       : A_AC3
Duration                       : 1 h 41 min
Bit rate mode                  : Constant
Bit rate                       : 256 kb/s
Channel(s)                     : 2 channels
Channel layout                 : L R
Sampling rate                  : 48.0 kHz
Frame rate                     : 31.250 FPS (1536 SPF)
Bit depth                      : 16 bits
Compression mode               : Lossy
Stream size                    : 186 MiB (13%)
Title                          : MVO [HDRezka Studio]
Language                       : Russian
Service kind                   : Complete Main
Default                        : Yes
Forced                         : No
Audio #2
ID                             : 3
Format                         : AC-3
Format/Info                    : Audio Coding 3
Commercial name                : Dolby Digital
Codec ID                       : A_AC3
Duration                       : 1 h 41 min
Bit rate mode                  : Constant
Bit rate                       : 448 kb/s
Channel(s)                     : 6 channels
Channel layout                 : L R C LFE Ls Rs
Sampling rate                  : 48.0 kHz
Frame rate                     : 31.250 FPS (1536 SPF)
Bit depth                      : 16 bits
Compression mode               : Lossy
Stream size                    : 325 MiB (22%)
Title                          : Original
Language                       : English
Service kind                   : Complete Main
Default                        : No
Forced                         : No
Audio #3
ID                             : 7
Format                         : AAC LC
Format/Info                    : Advanced Audio Codec Low Complexity
Codec ID                       : A_AAC-2
Duration                       : 1 h 41 min
Bit rate                       : 128 kb/s
Channel(s)                     : 2 channels
Channel layout                 : L R
Sampling rate                  : 44.1 kHz
Frame rate                     : 43.066 FPS (1024 SPF)
Compression mode               : Lossy
Stream size                    : 92.8 MiB (6%)
Title                          : O'zbek tilida (DUB) AxeL
Language                       : Uzbek
Default                        : No
Forced                         : No
Text #1
ID                             : 4
Format                         : UTF-8
Codec ID                       : S_TEXT/UTF8
Codec ID/Info                  : UTF-8 Plain Text
Duration                       : 4 min 11 s
Bit rate                       : 112 b/s
Count of elements              : 72
Stream size                    : 3.47 KiB (0%)
Title                          : Forced
Language                       : Russian
Default                        : No
Forced                         : No
Text #2
ID                             : 5
Format                         : UTF-8
Codec ID                       : S_TEXT/UTF8
Codec ID/Info                  : UTF-8 Plain Text
Duration                       : 1 h 33 min
Bit rate                       : 62 b/s
Count of elements              : 1499
Stream size                    : 42.7 KiB (0%)
Language                       : English
Default                        : No
Forced                         : No
Text #3
ID                             : 6
Format                         : UTF-8
Codec ID                       : S_TEXT/UTF8
Codec ID/Info                  : UTF-8 Plain Text
Duration                       : 1 h 32 min
Bit rate                       : 77 b/s
Count of elements              : 1872
Stream size                    : 52.9 KiB (0%)
Title                          : SDH
Language                       : English
Default                        : No
Forced                         : No


FILMDAN LAVHALAR
Profil ShX

AxeL ®

Jins:
Yigit
Staj:
2 yil 2 oy
Xabarlar:
773

Qayerdan: Gronland, Norway

Taqiq:

Ovoz berish 25 aprelgacha davom etadi! Faol bo'ling azizlar...

Mavzu yaratish 23-Apr-2020 12:20 (11 soat o‘tgach)

Iqitibos

Profil ShX
Xabarlarni ko‘rsatish:    

Hozirgi vaqt: 01-Iyun 21:45

Vaqtlar farqi: UTC + 5



Siz mavzu yaratishingiz mumkin emas
Siz xabarlarga javob qaytarishingiz mumkin emas
Siz o‘z xabarlaringizni tahrirlashingiz mumkin emas
Siz o‘z xabarlaringizni o‘chirishingiz mumkin emas
Siz so‘rovlarda ovoz berishingiz mumkin emas
Siz xabalarga fayllarni biriktirishingiz mumkin emas
Siz fayllarni ko‘chirishingiz mumkin emas