˂
˃
Tarqatmalar statistikasi
Ko‘chirmoqdaman: [ 8 ]
Ko‘chirib bo‘ldim: [ 21 ]
 
     
 
 

#Maksadjon_17 ®

Jins:
Yigit
Staj:
10 oy 3 kun
Xabarlar:
19

Qayerdan: Namangan, Chartak

Taqiq:

Kalashnikov (Konstantin Buslov) [2020, Biografiya, tarixiy, WEB-DL(1080p)]
--Chiqqan yili: 2020
Davlat: Rossiya
Janr: Biografiya, tarixiy
Davomiyligi: 01:44:27
Tarjima: Professional (Ko'p ovozli kadr ortidan)
Tarjima 2: Professional (dublyaj qilingan)-Rejissyor: Konstantin Buslov-Rollarda: Yuriy Borisov, Olga Lerman, Artur Smolyaninov, Eldar Kalimulin, Vitaliy Xaev, Valeriy Barinov, Anatoliy Lobotskiy, Aleksey Vertkov, Dmitriy Bogdan, Maksim Bityukov.-Tavsif: Kalashnikov. Bu nomni hamma biladi, lekin hamma ham bilmaydi, 28 yoshida afsonaviy AK-47 qurolini yaratishga o'zini o'zi o'rgatgan yigit qanday uzoq va murakkab yo'lni bosib o'tgan bo'lsa, bugungi kungacha bizning zamonamiz tafakkur qurolining ramzi hisoblanadi.-Videoning sifati: WEB-DL
Video format: MKV
Video: AVC, 1920x800, 24.000 fps, 3975 kbps
Audio: AAC, 48.0kHz, 2 channels, 192 kbps, [Uzbek, Tarjima MY5 TV Professional]
Audio 2: AC-3, 48.0kHz, 2 channels, 192 kbps, [Russian, Original]
Subtitrlar: mavjud emas

Media Info

General
Unique ID : 89706725570583834076143261080745158530 (0x437CE30BCEF1E30DE99AB27811E42782)
Complete name : D:\TorrentTracker\01) Kalashnikov.2020 [WEB-DL.1080p] by #Maksadjon_17.mkv
Format : Matroska
Format version : Version 4
File size : 3.18 GiB
Duration : 1 h 44 min
Overall bit rate mode : Variable
Overall bit rate : 4 365 kb/s
Encoded date : UTC 2020-04-21 12:52:03
Writing application : mkvmerge v38.0.0 ('The Silent Type') 64-bit
Writing library : libebml v1.3.9 + libmatroska v1.5.2
Video
ID : 1
Format : AVC
Format/Info : Advanced Video Codec
Format profile : High@L4
Format settings : CABAC / 2 Ref Frames
Format settings, CABAC : Yes
Format settings, Reference frames : 2 frames
Codec ID : V_MPEG4/ISO/AVC
Duration : 1 h 44 min
Bit rate mode : Variable
Bit rate : 3 975 kb/s
Maximum bit rate : 5 000 kb/s
Width : 1 920 pixels
Height : 800 pixels
Display aspect ratio : 2.40:1
Frame rate mode : Constant
Frame rate : 24.000 FPS
Color space : YUV
Chroma subsampling : 4:2:0
Bit depth : 8 bits
Scan type : Progressive
Bits/(Pixel*Frame) : 0.108
Stream size : 2.90 GiB (91%)
Default : Yes
Forced : No
Audio #1
ID : 2
Format : AAC LC
Format/Info : Advanced Audio Codec Low Complexity
Codec ID : A_AAC-2
Duration : 1 h 44 min
Bit rate : 192 kb/s
Channel(s) : 2 channels
Channel layout : L R
Sampling rate : 48.0 kHz
Frame rate : 46.875 FPS (1024 SPF)
Compression mode : Lossy
Stream size : 146 MiB (4%)
Title : Audio track #1 Uzbek MY5 TV
Language : Uzbek
Default : No
Forced : Yes
Audio #2
ID : 3
Format : AC-3
Format/Info : Audio Coding 3
Commercial name : Dolby Digital
Codec ID : A_AC3
Duration : 1 h 44 min
Bit rate mode : Constant
Bit rate : 192 kb/s
Channel(s) : 2 channels
Channel layout : L R
Sampling rate : 48.0 kHz
Frame rate : 31.250 FPS (1536 SPF)
Compression mode : Lossy
Stream size : 143 MiB (4%)
Title : Audio track #2 Russian
Language : Russian
Service kind : Complete Main
Default : Yes
Forced : No

Lavhalar

, , , , ,
Profil ShX
Xabarlarni ko‘rsatish:    

Hozirgi vaqt: 01-Iyun 20:40

Vaqtlar farqi: UTC + 5



Siz mavzu yaratishingiz mumkin emas
Siz xabarlarga javob qaytarishingiz mumkin emas
Siz o‘z xabarlaringizni tahrirlashingiz mumkin emas
Siz o‘z xabarlaringizni o‘chirishingiz mumkin emas
Siz so‘rovlarda ovoz berishingiz mumkin emas
Siz xabalarga fayllarni biriktirishingiz mumkin emas
Siz fayllarni ko‘chirishingiz mumkin emas