˂
˃
Tarqatmalar statistikasi
Ko‘chiraman: [ 1 ]
Ko‘chirmoqdaman: [ 6 ]
Ko‘chirib bo‘ldim: [ 19 ]
 
     
 
 

UmarShoh ®

Jins:
Yigit
Staj:
2 yil 2 oy
Xabarlar:
430
Taqiq:

-3 Soniya / The Informer
--
Chiqqan yili: 2009
Davlat: AQSH
Janr: jangari, triller
Davomiyligi: 01:49:39
Tarjima:
Dublyaj qilingan [My5 Uzb]
Dublyaj qilingan [WetY ® Rus]
Subtitrlar: Inglizcha.-Rejissyor: Andrea Di Stefano--Rollarda: Ana de Armas, Rosamund Pike, Yuel Kinnaman, Clive Owen, Common, Ruth Bradley, Sam Spwell, Martin McCann, Arturo Castro, Nasir Jama.--Tavsif: Uch soniya - snayper miltig'idan o'q otilgan masofa 1500 metrgacha. Federal qidiruv byurosining mafiya, politsiya va FQB o'rtasida tuzoqqa tushib qolgan xodimi qaror qilishiga shuncha vaqt qoldi.
Uning oilasi, erkinligi va hayoti xavf ostida...-- -Sifat: BDRip HEVC 10bit
Format: MKV
Video: AVC, 1920x808, 1906 kbps, 23,976 fps
Audio №1: O`zbek tilida / MP3 / 2.0 / 48 kHz / 128 kbps /
Audio №2: Rus tilida / AC3 / 5.1 / 48 kHz / 448 kbps / | WetY ®|
Audio №3: Ingliz tilida / AAC / 5.1 / 48 kHz / 209 kbps /-

Media Info

General
Unique ID : 59647551504198905992007356743356087387 (0x2CDFB35794C384B27A0B356CF7917C5B)
Complete name : F:\The.Informer.2019.BDRip 1080p HEVC 10bit Line.mkv
Format : Matroska
Format version : Version 4
File size : 2.03 GiB
Duration : 1 h 53 min
Overall bit rate : 2 565 kb/s
Encoded date : UTC 2020-01-25 16:35:50
Writing application : mkvmerge v35.0.0 ('All The Love In The World') 64-bit
Writing library : libebml v1.3.9 + libmatroska v1.5.2
Video
ID : 1
Format : HEVC
Format/Info : High Efficiency Video Coding
Format profile : Main 10@L4@Main
Codec ID : V_MPEGH/ISO/HEVC
Duration : 1 h 53 min
Bit rate : 1 906 kb/s
Width : 1 920 pixels
Height : 808 pixels
Display aspect ratio : 2.40:1
Frame rate mode : Constant
Frame rate : 23.976 (24000/1001) FPS
Color space : YUV
Chroma subsampling : 4:2:0
Bit depth : 10 bits
Bits/(Pixel*Frame) : 0.051
Stream size : 1.51 GiB (74%)
Default : Yes
Forced : No
Audio #1
ID : 2
Format : AC-3
Format/Info : Audio Coding 3
Commercial name : Dolby Digital
Codec ID : A_AC3
Duration : 1 h 53 min
Bit rate mode : Constant
Bit rate : 448 kb/s
Channel(s) : 6 channels
Channel layout : L R C LFE Ls Rs
Sampling rate : 48.0 kHz
Frame rate : 31.250 FPS (1536 SPF)
Compression mode : Lossy
Stream size : 363 MiB (17%)
Title : Dub [звук с онлайн-кинотеатра / WetY ®]
Language : Russian
Service kind : Complete Main
Default : Yes
Forced : No
Audio #2
ID : 3
Format : AAC LC SBR
Format/Info : Advanced Audio Codec Low Complexity with Spectral Band Replication
Commercial name : HE-AAC
Format settings : Explicit
Codec ID : A_AAC-2
Duration : 1 h 53 min
Bit rate : 209 kb/s
Channel(s) : 6 channels
Channel layout : C L R Ls Rs LFE
Sampling rate : 48.0 kHz
Frame rate : 23.438 FPS (2048 SPF)
Compression mode : Lossy
Delay relative to video : 23 ms
Stream size : 169 MiB (8%)
Title : Original
Language : English
Default : No
Forced : No
Text #1
ID : 4
Format : UTF-8
Codec ID : S_TEXT/UTF8
Codec ID/Info : UTF-8 Plain Text
Duration : 1 h 51 min
Bit rate : 45 b/s
Count of elements : 1016
Stream size : 36.7 KiB (0%)
Language : English
Default : No
Forced : No
Text #2
ID : 5
Format : UTF-8
Codec ID : S_TEXT/UTF8
Codec ID/Info : UTF-8 Plain Text
Duration : 1 h 51 min
Bit rate : 49 b/s
Count of elements : 1183
Stream size : 40.6 KiB (0%)
Title : SDH
Language : English
Default : No
Forced : No
Menu
00:00:00.000 : :Chapter 1
00:08:34.200 : :Chapter 2
00:17:20.400 : :Chapter 3
00:25:03.200 : :Chapter 4
00:33:03.800 : :Chapter 5
00:42:28.400 : :Chapter 6
00:53:26.000 : :Chapter 7
01:01:33.400 : :Chapter 8
01:09:53.800 : :Chapter 9
01:21:24.400 : :Chapter 10
01:31:34.600 : :Chapter 11
01:41:33.800 : :Chapter 12

Miniatyura


Profil ShX

UmarShoh ®

Jins:
Yigit
Staj:
2 yil 2 oy
Xabarlar:
430
Taqiq:

Xurmatli uztracker foydalanuvchilari!
Internet provayderdan qarz bo'lib qolganligim sababli relizlarni pullik qilishga majbur bo'ldim!
To'g'ri tushunasizlar degan umiddaman!

Manba

Mavzu yaratish 20-Apr-2020 09:24 (40 daqiqa o‘tgach)

Iqitibos

Profil ShX
Xabarlarni ko‘rsatish:    

Hozirgi vaqt: 01-Iyun 21:33

Vaqtlar farqi: UTC + 5



Siz mavzu yaratishingiz mumkin emas
Siz xabarlarga javob qaytarishingiz mumkin emas
Siz o‘z xabarlaringizni tahrirlashingiz mumkin emas
Siz o‘z xabarlaringizni o‘chirishingiz mumkin emas
Siz so‘rovlarda ovoz berishingiz mumkin emas
Siz xabalarga fayllarni biriktirishingiz mumkin emas
Siz fayllarni ko‘chirishingiz mumkin emas