˂
˃
Tarqatmalar statistikasi
Ko‘chirmoqdaman: [ 3 ]
Ko‘chirib bo‘ldim: [ 20 ]
 
     
 
 

MRLG ®

Jins:
Yigit
Staj:
2 yil 9 oy
Xabarlar:
643
Taqiq:

12 raund / 12 раундов / 12 Rounds-- Chiqqan yili: 2009
Davlat: AQSH
Janr: jangari, triller
Davomiyligi: 01:49:39
Tarjima:
  • Dublyaj qilingan [MilliyTV Uzb]
  • Dublyaj qilingan [iTunes Rus]
  • Dublyaj qilingan - [iTunes Ukr]

Subtitrlar: ruscha, ruscha (biriktirilgan), ukraincha, ukraincha (biriktirilgan), inglizcha-Rejissyor: Renni Xarlin / Renny Harlin--Rollarda: Djon Sina, Eydan Gillen, Eshli Skott, Stiv Xarris, Brayan Dj. Uayt, Gonsalo Menendes, Teylor Koul, Kayl Rassell Klements, Piter Nevi Tuyasosopo, Trevis Devis, Nik Gomes, Brayan Stenton--Tavsif: Yangi Orleanlik politsiyachi Denni Fisher dunyodagi eng xavfli jinoyatchini qo'lga oladi. Kutilmganda baxtsiz hodisa ro'y berib Maylsning qadrli insonini hayotdan olib ketadi. Qasos o'ti bilan yashayotgan Mayls qamoqdan qochadi va Dennining sevgilisini o'g'irlab ketadi. Denni bu o'yinni to'xtatish uchun qo'lidan kelgan barcha ishni qiladi, bu o'yinda u muhabbatini bir umrga yo'qotishi mumkin...-- -Sifat: BDRip-AVC
Format: MKV
Video: AVC, 1024x430 (2.40:1), 2992 kbps, 23,976 fps, 0,283 bpp
Audio №1: Uzbek / MP3 / 2.0 / 48 kHz / 128 kbps /
Audio №2: русский / AC3 / 5.1 / 48 kHz / 384 kbps / |iTunes|
Audio №3: украинский / AC3 / 5.1 / 48 kHz / 384 kbps /
Audio №4: английский / AC3 / 5.1 / 48 kHz / 384 kbps /-

Media Info

General
Unique ID                                : 187802975110306193093290393317038937796 (0x8D49898F2DF01643A1D0A4037334D6C4)
Complete name                            : D:\Кино\Дубляж фильмлар\HD Films Collection\12.Raund.(Unrated).2009.x264.BDRip.(AVC).-[MRLG].mkv
Format                                   : Matroska
Format version                           : Version 2
File size                                : 3.27 GiB
Duration                                 : 1 h 49 min
Overall bit rate                         : 4 275 kb/s
Movie name                               : 12 раундов (Расширенная версия) | 12 Rounds (Unrated) [2009] -=BDRip (AVC) by 0ptimus=-
Encoded date                             : UTC 2020-04-14 08:35:04
Writing application                      : mkvmerge v7.8.0 ('River Man') 32bit built on Apr  3 2015 12:11:22
Writing library                          : libebml v1.3.1 + libmatroska v1.4.2
Video
ID                                       : 1
Format                                   : AVC
Format/Info                              : Advanced Video Codec
Format profile                           : High@L4.1
Format settings, CABAC                   : Yes
Format settings, ReFrames                : 9 frames
Codec ID                                 : V_MPEG4/ISO/AVC
Duration                                 : 1 h 49 min
Bit rate                                 : 2 992 kb/s
Width                                    : 1 024 pixels
Height                                   : 430 pixels
Display aspect ratio                     : 2.40:1
Frame rate mode                          : Constant
Frame rate                               : 23.976 FPS
Color space                              : YUV
Chroma subsampling                       : 4:2:0
Bit depth                                : 8 bits
Scan type                                : Progressive
Bits/(Pixel*Frame)                       : 0.283
Stream size                              : 2.23 GiB (68%)
Title                                    : by 0ptimus
Writing library                          : x264 core 116 r2044 392e762
Encoding settings                        : cabac=1 / ref=9 / deblock=1:-2:-1 / analyse=0x3:0x113 / me=umh / subme=11 / psy=1 / psy_rd=1.00:0.20 / mixed_ref=1 / me_range=32 / chroma_me=1 / trellis=2 / 8x8dct=1 / cqm=0 / deadzone=21,11 / fast_pskip=0 / chroma_qp_offset=-3 / threads=3 / sliced_threads=0 / nr=0 / decimate=1 / interlaced=0 / bluray_compat=0 / constrained_intra=0 / bframes=5 / b_pyramid=2 / b_adapt=2 / b_bias=0 / direct=3 / weightb=1 / open_gop=0 / weightp=2 / keyint=250 / keyint_min=23 / scenecut=40 / intra_refresh=0 / rc=2pass / mbtree=0 / bitrate=2992 / ratetol=1.0 / qcomp=0.60 / qpmin=0 / qpmax=69 / qpstep=4 / cplxblur=20.0 / qblur=0.5 / ip_ratio=1.40 / pb_ratio=1.30 / aq=1:1.00
Language                                 : English
Default                                  : Yes
Forced                                   : Yes
Audio #1
ID                                       : 2
Format                                   : MPEG Audio
Format version                           : Version 1
Format profile                           : Layer 3
Mode                                     : Joint stereo
Mode extension                           : MS Stereo
Codec ID                                 : A_MPEG/L3
Codec ID/Hint                            : MP3
Duration                                 : 1 h 49 min
Bit rate mode                            : Constant
Bit rate                                 : 128 kb/s
Channel(s)                               : 2 channels
Sampling rate                            : 48.0 kHz
Compression mode                         : Lossy
Stream size                              : 100 MiB (3%)
Title                                    : MilliyTV | MRLG
Writing library                          : LAME3.100Є
Language                                 : Uzbek
Default                                  : No
Forced                                   : No
Audio #2
ID                                       : 3
Format                                   : AC-3
Format/Info                              : Audio Coding 3
Mode extension                           : CM (complete main)
Format settings, Endianness              : Big
Codec ID                                 : A_AC3
Duration                                 : 1 h 49 min
Bit rate mode                            : Constant
Bit rate                                 : 384 kb/s
Channel(s)                               : 6 channels
Channel positions                        : Front: L C R, Side: L R, LFE
Sampling rate                            : 48.0 kHz
Frame rate                               : 31.250 FPS (1536 spf)
Compression mode                         : Lossy
Stream size                              : 301 MiB (9%)
Title                                    : Дублированный [rus]
Language                                 : Russian
Default                                  : No
Forced                                   : No
Audio #3
ID                                       : 4
Format                                   : AC-3
Format/Info                              : Audio Coding 3
Mode extension                           : CM (complete main)
Format settings, Endianness              : Big
Codec ID                                 : A_AC3
Duration                                 : 1 h 49 min
Bit rate mode                            : Constant
Bit rate                                 : 384 kb/s
Channel(s)                               : 6 channels
Channel positions                        : Front: L C R, Side: L R, LFE
Sampling rate                            : 48.0 kHz
Frame rate                               : 31.250 FPS (1536 spf)
Compression mode                         : Lossy
Stream size                              : 301 MiB (9%)
Title                                    : Дублированный [ukr]
Language                                 : Ukrainian
Default                                  : No
Forced                                   : No
Audio #4
ID                                       : 5
Format                                   : AC-3
Format/Info                              : Audio Coding 3
Mode extension                           : CM (complete main)
Format settings, Endianness              : Big
Codec ID                                 : A_AC3
Duration                                 : 1 h 49 min
Bit rate mode                            : Constant
Bit rate                                 : 384 kb/s
Channel(s)                               : 6 channels
Channel positions                        : Front: L C R, Side: L R, LFE
Sampling rate                            : 48.0 kHz
Frame rate                               : 31.250 FPS (1536 spf)
Compression mode                         : Lossy
Stream size                              : 301 MiB (9%)
Language                                 : English
Default                                  : No
Forced                                   : No
Text #1
ID                                       : 6
Format                                   : UTF-8
Codec ID                                 : S_TEXT/UTF8
Codec ID/Info                            : UTF-8 Plain Text
Language                                 : Russian
Default                                  : No
Forced                                   : No
Text #2
ID                                       : 7
Format                                   : UTF-8
Codec ID                                 : S_TEXT/UTF8
Codec ID/Info                            : UTF-8 Plain Text
Title                                    : Форсированные
Language                                 : Russian
Default                                  : No
Forced                                   : No
Text #3
ID                                       : 8
Format                                   : UTF-8
Codec ID                                 : S_TEXT/UTF8
Codec ID/Info                            : UTF-8 Plain Text
Language                                 : Ukrainian
Default                                  : No
Forced                                   : No
Text #4
ID                                       : 9
Format                                   : UTF-8
Codec ID                                 : S_TEXT/UTF8
Codec ID/Info                            : UTF-8 Plain Text
Title                                    : Форсированные
Language                                 : Ukrainian
Default                                  : No
Forced                                   : No
Text #5
ID                                       : 10
Format                                   : UTF-8
Codec ID                                 : S_TEXT/UTF8
Codec ID/Info                            : UTF-8 Plain Text
Language                                 : English
Default                                  : No
Forced                                   : No
Menu
00:00:00.000                             : :Main Titles
00:02:44.581                             : :Danny and Molly
00:04:28.267                             : :Face of the Devil
00:07:36.122                             : :Double-Cross
00:11:57.049                             : :Oldest Trick in the Book
00:14:26.115                             : :Terrorist In the Trunk
00:17:33.802                             : :Officer In Pursuit
00:20:26.600                             : :I'll Remember You
00:22:25.343                             : :One Year Later
00:24:11.324                             : :A Little Help
00:26:43.351                             : :Round 1
00:28:40.593                             : :Round 2
00:33:53.489                             : :It's a Game
00:34:59.514                             : :Round 3
00:38:23.676                             : :Round 4
00:44:21.116                             : :Round 5
00:50:54.801                             : :The Hotel Monteleone
00:56:05.403                             : :Round 6
01:00:30.752                             : :Untraceable
01:03:28.763                             : :Clairbourne & Toulouse
01:06:28.109                             : :Round 7
01:14:04.606                             : :Eye For An Eye
01:15:38.033                             : :Round 8
01:17:02.826                             : :Round 9 and 10
01:25:25.578                             : :Round 11
01:29:12.930                             : :Round 12
01:31:06.711                             : :It's About the Money
01:35:31.767                             : :Everything Has a Purpose
01:36:57.937                             : :A Trip to the Hospital
01:40:06.208                             : :One Last Round
01:42:45.075                             : :Game Over
01:45:32.451                             : :End Titles
01:49:39.072                             : :

Miniatyura

LAVHALAR- © Template by MRLG
Profil ShX
Xabarlarni ko‘rsatish:    

Hozirgi vaqt: 01-Iyun 20:06

Vaqtlar farqi: UTC + 5



Siz mavzu yaratishingiz mumkin emas
Siz xabarlarga javob qaytarishingiz mumkin emas
Siz o‘z xabarlaringizni tahrirlashingiz mumkin emas
Siz o‘z xabarlaringizni o‘chirishingiz mumkin emas
Siz so‘rovlarda ovoz berishingiz mumkin emas
Siz xabalarga fayllarni biriktirishingiz mumkin emas
Siz fayllarni ko‘chirishingiz mumkin emas