˂
˃
Tarqatmalar statistikasi
Ko‘chirmoqdaman: [ 1 ]
Ko‘chirib bo‘ldim: [ 5 ]
 
     
 
 

UmarShoh ®

Jins:
Yigit
Staj:
2 yil 2 oy
Xabarlar:
430
Taqiq:

-Muzyurak Jamlanmasi / The Collection of Frozen-- -Chiqqan yillari: 2013,2017,2019
Davlat: AQSH, Walt Disney Animation Studios, Walt Disney Pictures.
Janr: Multfilm, sarguzasht, oilaviy.
Davomiyligi: 01:42:13, 00:22:04, 01:43:14
Tarjima #1: Professional (Bolajon,MilliyTV) O'zbek tilida
Tarjima #2: To'liq dublyaj (Arab Televideniyasi) Arab tilida-Rejissyorlar: Chris Buck, Jennifer Lee.
Rollarni ovozlashtirganlar: Idina Menzel, Kristen Bell, Jonatan Grof, Josh Gad, Sterling K. Braun, Evan Reychel Vud, Alfred Molina, Marta Plimpton, Jeyson Ritter, Reychel Metyus.-Tavsif:Ushbu multfilmda erta ota-onalaridan ayrilgan opa-singillar: Anna va Elzalarning qirollikni yovuzlardan saqlab qolish uchun qilgan mashaqqatli urunishlari, hamda Kristof ismni muz sotish bilan shug'ullanuvchi yigitning jasorati yoritib berilgan!-Videoning sifati: BluRay HEVC 1080p 10 bit
Video format: MKV
Video: HEVC 1920x800 23.976fps 4 246 Kbps
Audio #1: MP3, 48000Hz stereo 2ch 128 Kbps O'zbek tilida
Audio #2: AC-3, 8 ch, 594 kbps, 48.0 kHz Inglizcha
Audio #3: MP3, 48000Hz stereo 2ch 128 Kbps Arabcha-

MediaInfo


General
Unique ID : 200935153634454327073399401551882452095 (0x972AB3F2FD20A7C6438301DAD6957C7F)
Complete name : D:\Media\Multfilmlar\Multfilmlar\001) Frozen [ 2013 Bluray 1080p x265 10bit ] O'zbek tilida.mkv
Format : Matroska
Format version : Version 4
File size : 4.01 GiB
Duration : 1 h 42 min
Overall bit rate : 5 620 kb/s
Movie name : Frozen
Encoded date : UTC 2020-04-07 18:05:32
Writing application : mkvmerge v42.0.0 ('Overtime') 64-bit
Writing library : libebml v1.3.10 + libmatroska v1.5.2
Cover : Yes
Attachments : Cover.jpg
Video
ID : 1
Format : HEVC
Format/Info : High Efficiency Video Coding
Format profile : Main 10@L4@Main
Codec ID : V_MPEGH/ISO/HEVC
Duration : 1 h 42 min
Bit rate : 4 246 kb/s
Width : 1 920 pixels
Height : 860 pixels
Display aspect ratio : 2.25:1
Frame rate mode : Constant
Frame rate : 23.976 (24000/1001) FPS
Color space : YUV
Chroma subsampling : 4:2:0
Bit depth : 10 bits
Bits/(Pixel*Frame) : 0.107
Stream size : 3.03 GiB (76%)
Writing library : x265 3.1+8-21db162c8622:[Windows][GCC 9.1.0][64 bit] 10bit
Encoding settings : cpuid=1111039 / frame-threads=3 / numa-pools=8 / wpp / no-pmode / no-pme / no-psnr / no-ssim / log-level=2 / input-csp=1 / input-res=1920x860 / interlace=0 / total-frames=147046 / level-idc=0 / high-tier=1 / uhd-bd=0 / ref=4 / no-allow-non-conformance / no-repeat-headers / annexb / no-aud / no-hrd / info / hash=0 / no-temporal-layers / open-gop / min-keyint=23 / keyint=250 / gop-lookahead=0 / bframes=8 / b-adapt=2 / b-pyramid / bframe-bias=0 / rc-lookahead=25 / lookahead-slices=4 / scenecut=40 / radl=0 / no-splice / no-intra-refresh / ctu=64 / min-cu-size=8 / rect / no-amp / max-tu-size=32 / tu-inter-depth=1 / tu-intra-depth=1 / limit-tu=0 / rdoq-level=2 / dynamic-rd=0.00 / no-ssim-rd / signhide / no-tskip / nr-intra=0 / nr-inter=0 / no-constrained-intra / strong-intra-smoothing / max-merge=3 / limit-refs=3 / limit-modes / me=3 / subme=3 / merange=57 / temporal-mvp / no-hme / weightp / no-weightb / no-analyze-src-pics / deblock=0:0 / no-sao / no-sao-non-deblock / rd=4 / no-early-skip / rskip / no-fast-intra / no-tskip-fast / no-cu-lossless / no-b-intra / no-splitrd-skip / rdpenalty=0 / psy-rd=2.00 / psy-rdoq=1.00 / no-rd-refine / no-lossless / cbqpoffs=0 / crqpoffs=0 / rc=crf / crf=18.0 / qcomp=0.60 / qpstep=4 / stats-write=0 / stats-read=0 / ipratio=1.40 / pbratio=1.30 / aq-mode=3 / aq-strength=1.00 / cutree / zone-count=0 / no-strict-cbr / qg-size=32 / no-rc-grain / qpmax=69 / qpmin=0 / no-const-vbv / sar=0 / overscan=0 / videoformat=5 / range=0 / colorprim=2 / transfer=2 / colormatrix=2 / chromaloc=0 / display-window=0cll=0,0 / min-luma=0 / max-luma=1023 / log2-max-poc-lsb=8 / vui-timing-info / vui-hrd-info / slices=1 / no-opt-qp-pps / no-opt-ref-list-length-pps / no-multi-pass-opt-rps / scenecut-bias=0.05 / no-opt-cu-delta-qp / aq-motion / no-hdr / no-hdr-opt / no-dhdr10-opt / no-idr-recovery-sei / analysis-reuse-level=5 / scale-factor=0 / refine-intra=0 / refine-inter=0 / refine-mv=0 / refine-ctu-distortion=0 / no-limit-sao / ctu-info=0 / no-lowpass-dct / refine-analysis-type=0 / copy-pic=1 / max-ausize-factor=1.0 / no-dynamic-refine / no-single-sei / no-hevc-aq / no-svt / no-field / qp-adaptation-range=1.00
Default : Yes
Forced : No
Audio #1
ID : 2
Format : AAC LC
Format/Info : Advanced Audio Codec Low Complexity
Codec ID : A_AAC-2
Duration : 1 h 42 min
Bit rate : 594 kb/s
Channel(s) : 8 channels
Channel layout : C L R Ls Rs Lb Rb LFE
Sampling rate : 48.0 kHz
Frame rate : 46.875 FPS (1024 SPF)
Compression mode : Lossy
Delay relative to video : 20 ms
Stream size : 435 MiB (11%)
Title : Original
Language : English
Default : Yes
Forced : No
Audio #2
ID : 3
Format : AC-3
Format/Info : Audio Coding 3
Commercial name : Dolby Digital
Codec ID : A_AC3
Duration : 1 h 42 min
Bit rate mode : Constant
Bit rate : 640 kb/s
Channel(s) : 6 channels
Channel layout : L R C LFE Ls Rs
Sampling rate : 48.0 kHz
Frame rate : 31.250 FPS (1536 SPF)
Compression mode : Lossy
Stream size : 468 MiB (11%)
Title : Arabic
Language : Arabic
Service kind : Complete Main
Default : No
Forced : No
Audio #3
ID : 4
Format : MPEG Audio
Format version : Version 1
Format profile : Layer 3
Format settings : Joint stereo / MS Stereo
Codec ID : A_MPEG/L3
Codec ID/Hint : MP3
Duration : 1 h 42 min
Bit rate mode : Constant
Bit rate : 128 kb/s
Channel(s) : 2 channels
Sampling rate : 44.1 kHz
Frame rate : 38.281 FPS (1152 SPF)
Compression mode : Lossy
Stream size : 93.6 MiB (2%)
Title : Bolajon (UmarShoh_FL)
Writing library : LAME3.99.5
Language : Uzbek
Default : No
Forced : No
Text
ID : 5
Format : VobSub
Muxing mode : zlib
Codec ID : S_VOBSUB
Codec ID/Info : Picture based subtitle format used on DVDs
Duration : 1 h 41 min
Bit rate : 11.9 kb/s
Count of elements : 1994
Stream size : 8.68 MiB (0%)
Title : Orginal
Language : English
Default : No
Forced : No
Menu
00:00:00.000 : en:Chapter 01
00:05:59.817 : en:Chapter 02
00:11:37.947 : en:Chapter 03
00:19:53.734 : en:Chapter 04
00:31:03.194 : en:Chapter 05
00:38:39.483 : en:Chapter 06
00:44:21.283 : en:Chapter 07
00:50:51.506 : en:Chapter 08
00:57:48.381 : en:Chapter 09
01:02:57.398 : en:Chapter 10
01:09:36.046 : en:Chapter 11
01:13:34.868 : en:Chapter 12
01:18:07.599 : en:Chapter 13
01:22:33.740 : en:Chapter 14
01:27:10.808 : en:Chapter 15
01:32:33.464 : en:Chapter 16
Profil ShX

AxeL

Jins:
Yigit
Staj:
2 yil 2 oy
Xabarlar:
774

Qayerdan: Gronland, Norway

Taqiq:

ajoyib ish bo'libdi, omad tilayman

Mavzu yaratish 10-Apr-2020 23:27 (1 kun 2 soat o‘tgach)

Iqitibos

Profil ShX
Xabarlarni ko‘rsatish:    

Hozirgi vaqt: 04-Iyun 04:46

Vaqtlar farqi: UTC + 5



Siz mavzu yaratishingiz mumkin emas
Siz xabarlarga javob qaytarishingiz mumkin emas
Siz o‘z xabarlaringizni tahrirlashingiz mumkin emas
Siz o‘z xabarlaringizni o‘chirishingiz mumkin emas
Siz so‘rovlarda ovoz berishingiz mumkin emas
Siz xabalarga fayllarni biriktirishingiz mumkin emas
Siz fayllarni ko‘chirishingiz mumkin emas