˂
˃
Tarqatmalar statistikasi
Ko‘chirmoqdaman: [ 1 ]
Ko‘chirib bo‘ldim: [ 8 ]
 
     
 
 

Striker ®

Jins:
Yigit
Staj:
2 yil 9 oy
Xabarlar:
61
Taqiq:

Dizayn jamoasi konsert dasturi 2019
Chiqqan yili: 2019
Janr: Kulgu, Hajviya, Shou
Davomiyligi: 02:55:18
-
Videoning sifati: WEBRip 1080p
Video formati: MP4
Video: MPEG4 Video (H264) 1920x1080 25fps 2945kbps
Audio: AAC 44100Hz stereo 127kbps

MediaInfo

General
Complete name : D:\DOWNLOADS\DIZAYN JAMOASI (DIZAYN SHOU 2019) KONSERT DASTURI.mp4
Format : MPEG-4
Format profile : Base Media
Codec ID : isom (isom/iso2/avc1/mp41)
File size : 3.77 GiB
Duration : 2 h 55 min
Overall bit rate mode : Variable
Overall bit rate : 3 076 kb/s
Encoded date : UTC 2020-04-01 12:39:19
Tagged date : UTC 2020-04-01 12:39:19
Video
ID : 1
Format : AVC
Format/Info : Advanced Video Codec
Format profile : High@L4
Format settings : CABAC / 3 Ref Frames
Format settings, CABAC : Yes
Format settings, Reference fra : 3 frames
Codec ID : avc1
Codec ID/Info : Advanced Video Coding
Duration : 2 h 55 min
Bit rate : 2 945 kb/s
Width : 1 920 pixels
Height : 1 080 pixels
Display aspect ratio : 16:9
Frame rate mode : Constant
Frame rate : 25.000 FPS
Color space : YUV
Chroma subsampling : 4:2:0
Bit depth : 8 bits
Scan type : Progressive
Bits/(Pixel*Frame) : 0.057
Stream size : 3.61 GiB (96%)
Title : ISO Media file produced by Google Inc.
Encoded date : UTC 2020-04-01 12:39:19
Tagged date : UTC 2020-04-01 12:39:19
Color range : Limited
Color primaries : BT.709
Transfer characteristics : BT.709
Matrix coefficients : BT.709
Codec configuration box : avcC
Audio
ID : 2
Format : AAC LC
Format/Info : Advanced Audio Codec Low Complexity
Codec ID : mp4a-40-2
Duration : 2 h 55 min
Bit rate mode : Variable
Bit rate : 128 kb/s
Channel(s) : 2 channels
Channel layout : L R
Sampling rate : 44.1 kHz
Frame rate : 43.066 FPS (1024 SPF)
Compression mode : Lossy
Stream size : 160 MiB (4%)
Title : ISO Media file produced by Google Inc.
Default : Yes
Alternate group : 1
Encoded date : UTC 2020-04-01 12:42:21
Tagged date : UTC 2020-04-01 12:42:21

Miniatyura

Lavhalar



So‘ngi marta tahrirlandi: Striker (2020-04-02 13:17), Jami tahrirlangan 3 marta
Profil ShX

AxeL

Jins:
Yigit
Staj:
2 yil 2 oy
Xabarlar:
774

Qayerdan: Gronland, Norway

Taqiq:

9060
Rejisser: Davron Kabulov
Rollarda: Umid Haydarov, Alisher Botirov, Maʻruf Nosirov, Durdona Qurbonova, Feruza Normatova, Mirkomil Musayev, Bekzod Komiljonov va boshqalar
Tavsif: «Million» jamoasi — Oʻzbekistondagi hajviy-kulgu jamoasi. 2014-yilda tashkil topgan. Guruh hozirda 8 nafar ishtirokchidan iborat. Ishtirokchilarning deyarli hammasi O'zbekiston Milliy universitetini tamomlashgan. Oliygoh nomidan "Quvnoqlar va zukkolar" (QvZ) shousida qatnashish orqali tanilishgan. Oʻzlarining qaltis hazillari tufayli guruh bir necha marta tanqid ostiga olingan.
iya konsert dizaynniki, lekin ma'lumotlar millionniki?

Mavzu yaratish 02-Apr-2020 13:01 (1 soat 6 daqiqa o‘tgach)

Iqitibos

Profil ShX

Striker ®

Jins:
Yigit
Staj:
2 yil 9 oy
Xabarlar:
61
Taqiq:

9061
9060
Rejisser: Davron Kabulov
Rollarda: Umid Haydarov, Alisher Botirov, Maʻruf Nosirov, Durdona Qurbonova, Feruza Normatova, Mirkomil Musayev, Bekzod Komiljonov va boshqalar
Tavsif: «Million» jamoasi — Oʻzbekistondagi hajviy-kulgu jamoasi. 2014-yilda tashkil topgan. Guruh hozirda 8 nafar ishtirokchidan iborat. Ishtirokchilarning deyarli hammasi O'zbekiston Milliy universitetini tamomlashgan. Oliygoh nomidan "Quvnoqlar va zukkolar" (QvZ) shousida qatnashish orqali tanilishgan. Oʻzlarining qaltis hazillari tufayli guruh bir necha marta tanqid ostiga olingan.
iya konsert dizaynniki, lekin ma'lumotlar millionniki?
Uzr adashibman

Mavzu yaratish 02-Apr-2020 13:18 (16 daqiqa o‘tgach)

Iqitibos

Profil ShX
Xabarlarni ko‘rsatish:    

Hozirgi vaqt: 05-Iyun 18:51

Vaqtlar farqi: UTC + 5



Siz mavzu yaratishingiz mumkin emas
Siz xabarlarga javob qaytarishingiz mumkin emas
Siz o‘z xabarlaringizni tahrirlashingiz mumkin emas
Siz o‘z xabarlaringizni o‘chirishingiz mumkin emas
Siz so‘rovlarda ovoz berishingiz mumkin emas
Siz xabalarga fayllarni biriktirishingiz mumkin emas
Siz fayllarni ko‘chirishingiz mumkin emas