˂
˃
Tarqatmalar statistikasi
Ko‘chirmoqdaman: [ 6 ]
 
     
 
 

UmarShoh ®

Jins:
Yigit
Staj:
2 yil 2 oy
Xabarlar:
430
Taqiq:

- Sonik / Sonic the Hedgehog-- -Chiqqan yili: 2020
Davlat: AQSH, Yaponiya, Kanada.
Janr: Fantastika, sarguzasht, oilaviy.
Davomiyligi: 01:38:53
Tarjima: Professional (My5) o'zbek tilida-Rejissyor: Jeff Fowler.
Rollarni ovozlashtirganlar: Jeyms Marsden, Ben Shvars, Natasha Rotuel, Tika Sampter, Nil Makdolanf va boshqalar...-Tavsif: Ushbu filmda Sonik laqabli moviy tipratikan o'z sayyorasidan qochib ketib yer sayyorasiga tushib qoladi va u yerda...-Videoning sifati: WEBRip 1080p
Video format: MKV
Video: HEVC 1920x1080 23.976fps 5359 Kbps
Audio #1: MP3, 48000Hz stereo 2ch 128 Kbps O'zbek tilida
Audio #2: AC3 LC, 2 ch, 256 kbps, 48.0 kHz Inglizcha-

MediaInfo


General
Unique ID : 24507834409202353069932241830569454024 (0x12700986FE282BE8F9D9B987BE6E29C8)
Complete name : C:\Users\Umar\Downloads\Sonic the Hedgehog.2020.WEB.1080p O'zbek tilida.mkv
Format : Matroska
Format version : Version 4
File size : 3.98 GiB
Duration : 1 h 38 min
Overall bit rate : 5 755 kb/s
Encoded date : UTC 2020-04-01 22:16:38
Writing application : mkvmerge v42.0.0 ('Overtime') 64-bit
Writing library : libebml v1.3.10 + libmatroska v1.5.2
Video
ID : 1
Format : AVC
Format/Info : Advanced Video Codec
Format profile : High@L4
Format settings : CABAC / 2 Ref Frames
Format settings, CABAC : Yes
Format settings, Reference : 2 frames
Codec ID : V_MPEG4/ISO/AVC
Duration : 1 h 38 min
Bit rate : 5 369 kb/s
Width : 1 920 pixels
Height : 1 080 pixels
Display aspect ratio : 16:9
Frame rate mode : Constant
Frame rate : 23.976 (24000/1001) FPS
Color space : YUV
Chroma subsampling : 4:2:0
Bit depth : 8 bits
Scan type : Progressive
Bits/(Pixel*Frame) : 0.108
Stream size : 3.71 GiB (93%)
Writing library : x264 core 155 r2901 7d0ff22
Language : English
Default : No
Forced : No
Color range : Limited
Color primaries : BT.709
Transfer characteristics : BT.709
Matrix coefficients : BT.709
Audio #1
ID : 2
Format : AC-3
Format/Info : Audio Coding 3
Commercial name : Dolby Digital
Codec ID : A_AC3
Duration : 1 h 38 min
Bit rate mode : Constant
Bit rate : 256 kb/s
Channel(s) : 2 channels
Channel layout : L R
Sampling rate : 48.0 kHz
Frame rate : 31.250 FPS (1536 SPF)
Compression mode : Lossy
Stream size : 181 MiB (4%)
Title : Original
Language : English
Service kind : Complete Main
Default : No
Forced : No
Audio #2
ID : 3
Format : MPEG Audio
Format version : Version 1
Format profile : Layer 3
Format settings : Joint stereo
Codec ID : A_MPEG/L3
Codec ID/Hint : MP3
Duration : 1 h 38 min
Bit rate mode : Constant
Bit rate : 128 kb/s
Channel(s) : 2 channels
Sampling rate : 44.1 kHz
Frame rate : 38.281 FPS (1152 SPF)
Compression mode : Lossy
Stream size : 90.5 MiB (2%)
Title : My5 (UmarShoh_FL)
Writing library : LAME3.99.5
Language : Uzbek
Default : Yes
Forced : No


So‘ngi marta tahrirlandi: UmarShoh (2020-04-01 15:28), Jami tahrirlangan 1 marta
Profil ShX

MRLG

Jins:
Yigit
Staj:
2 yil 9 oy
Xabarlar:
643
Taqiq:

UmarShoh, Media info umuman boshqa multfilmniki.

Mavzu yaratish 01-Apr-2020 13:18 (1 soat 25 daqiqa o‘tgach)

Iqitibos

Profil ShX

UmarShoh ®

Jins:
Yigit
Staj:
2 yil 2 oy
Xabarlar:
430
Taqiq:

MRLG, Shuni o'zgartirish esdan chiqib qolibti! ag

Mavzu yaratish 01-Apr-2020 13:56 (37 daqiqa o‘tgach)

Iqitibos

Profil ShX

UmarShoh ®

Jins:
Yigit
Staj:
2 yil 2 oy
Xabarlar:
430
Taqiq:

MRLG, Kamchilik to'g'irlandi! aa

Mavzu yaratish 01-Apr-2020 15:29 (1 soat 33 daqiqa o‘tgach)

Iqitibos

Profil ShX

UmarShoh ®

Jins:
Yigit
Staj:
2 yil 2 oy
Xabarlar:
430
Taqiq:

Xurmatli Foydalanuvchilar!Ushbu filmda biroz nosozlik tufayli filmning bir
kichik qismidagi ovoz yo'lagida muammo yuzaga kelgan ekan
shu sababli qayta tekshirishlardan so'ng qayta reliz qilinadi!
Noqulayliklar uchun uzur so'rayman!

Mavzu yaratish 02-Apr-2020 14:30 (23 soat o‘tgach)

Iqitibos

Profil ShX
Xabarlarni ko‘rsatish:    

Hozirgi vaqt: 03-Iyun 20:14

Vaqtlar farqi: UTC + 5



Siz mavzu yaratishingiz mumkin emas
Siz xabarlarga javob qaytarishingiz mumkin emas
Siz o‘z xabarlaringizni tahrirlashingiz mumkin emas
Siz o‘z xabarlaringizni o‘chirishingiz mumkin emas
Siz so‘rovlarda ovoz berishingiz mumkin emas
Siz xabalarga fayllarni biriktirishingiz mumkin emas
Siz fayllarni ko‘chirishingiz mumkin emas