˂
˃
 

Striker ®

Jins:
Yigit
Staj:
2 yil 9 oy
Xabarlar:
61
Taqiq:

Bravo jamoasi konsert dasturi 2019
Chiqqan yili: 2019
Janr: Kulgu, Hajviya, Shou
Davomiyligi: 01:47:40
Rejisser: Otabek Mirzoholov
Rollarda: Otabek Mirzaholov, Ahmad Temirov, Umid Umarov, Shaxlo Zoirova va boshqalar-Tavsif: Million jamosidan ajralib chiqqan va yangi "Bravo" jamoasining tashkil topilganidan keyingi 2-konsert dasturi.
Videoning sifati: WEBRip 1080p
Video formati: MP4
Video: MPEG4 Video (H264) 1920x1080 50fps 3851kbps
Audio: AAC 44100Hz stereo 127kbps

MediaInfo

General
Complete name : D:\DOWNLOADS\BRAVO JAMOASI KONSERT DASTURI 2019.mp4
Format : MPEG-4
Format profile : Base Media
Codec ID : isom (isom/iso2/avc1/mp41)
File size : 3.00 GiB
Duration : 1 h 47 min
Overall bit rate mode : Variable
Overall bit rate : 3 984 kb/s
Encoded date : UTC 2020-03-29 21:17:00
Tagged date : UTC 2020-03-29 21:17:00
Video
ID : 1
Format : AVC
Format/Info : Advanced Video Codec
Format profile : High@L4.2
Format settings : CABAC / 3 Ref Frames
Format settings, CABAC : Yes
Format settings, Reference fra : 3 frames
Codec ID : avc1
Codec ID/Info : Advanced Video Coding
Duration : 1 h 47 min
Bit rate : 3 852 kb/s
Width : 1 920 pixels
Height : 1 080 pixels
Display aspect ratio : 16:9
Frame rate mode : Constant
Frame rate : 50.000 FPS
Color space : YUV
Chroma subsampling : 4:2:0
Bit depth : 8 bits
Scan type : Progressive
Bits/(Pixel*Frame) : 0.037
Stream size : 2.90 GiB (97%)
Title : ISO Media file produced by Google Inc.
Encoded date : UTC 2020-03-29 21:17:00
Tagged date : UTC 2020-03-29 21:17:00
Color range : Limited
Color primaries : BT.709
Transfer characteristics : BT.709
Matrix coefficients : BT.709
Codec configuration box : avcC
Audio
ID : 2
Format : AAC LC
Format/Info : Advanced Audio Codec Low Complexity
Codec ID : mp4a-40-2
Duration : 1 h 47 min
Bit rate mode : Variable
Bit rate : 128 kb/s
Channel(s) : 2 channels
Channel layout : L R
Sampling rate : 44.1 kHz
Frame rate : 43.066 FPS (1024 SPF)
Compression mode : Lossy
Stream size : 98.6 MiB (3%)
Title : ISO Media file produced by Google Inc.
Language : English
Default : Yes
Alternate group : 1
Encoded date : UTC 2020-03-29 21:16:53
Tagged date : UTC 2020-03-29 21:16:53

Miniatyura

Lavhalar

Profil ShX

SArdor95

Jins:
Ko‘rsatilmagan
Staj:
1 yil 5 oy
Xabarlar:
4
Taqiq:

tarqatilaa

Mavzu yaratish 01-Apr-2020 13:11 (1 kun 22 soat o‘tgach)

Iqitibos

Profil ShX
Xabarlarni ko‘rsatish:    

Hozirgi vaqt: 03-Iyun 21:28

Vaqtlar farqi: UTC + 5



Siz mavzu yaratishingiz mumkin emas
Siz xabarlarga javob qaytarishingiz mumkin emas
Siz o‘z xabarlaringizni tahrirlashingiz mumkin emas
Siz o‘z xabarlaringizni o‘chirishingiz mumkin emas
Siz so‘rovlarda ovoz berishingiz mumkin emas
Siz xabalarga fayllarni biriktirishingiz mumkin emas
Siz fayllarni ko‘chirishingiz mumkin emas