˂
˃
Tarqatmalar statistikasi
Ko‘chirmoqdaman: [ 3 ]
Ko‘chirib bo‘ldim: [ 25 ]
 
     
 
 

UmarShoh ®

Jins:
Yigit
Staj:
2 yil 2 oy
Xabarlar:
430
Taqiq:

- Niqob Ostidagi Ayg'oqchilar / Spies in Disguise-- -Chiqqan yili: 2019
Davlat: AQSH
Janr: Multfilm, sarguzasht, oilaviy
Davomiyligi: 01:41:51
Tarjima: Professional (MilliyTV) o'zbek tilida-Rejissyorlar: Nick Bruno,Troy Quane.
Rollarni ovozlashtirganlar: Will Smith, Tom Holland, Rashida Jones, Ben Mendelssohn, Riba McIntyre, Rachel Brosnahan, Karen Gillan, D.J. Khaled, Masi Oka, Carla Jimenez.-Tavsif:
Tavsif: Super josus Lens Sterling va yosh olim Uolter Beckett mutlaqo qarshi.
Har kuni quvnoq nayzalar shaharlar va mamlakatlarni qutqaradi. Gloomy Uolter o'z
ixtirolari va gadjetlari dunyosidagi har kimdan o'zini chetga olmoqchi. Ammo voqealar
kutilmagan burilish sodir bo'lganda, bu mumkin bo'lmagan duet birlashishga va o'zlarining
barcha qobiliyatlarini mutlaqo yangi tarzda namoyish etishga majbur bo'ladi. G'alati juftlik
butun dunyoni qutqarish uchun niqobning ajoyib mo''jizalariga muhtoj bo'ladi.-Videoning sifati: BDRip HEVC 1080p 10 bit
Video format: MKV
Video: HEVC 1920x808 23.976fps 1702 Kbps
Audio #1: MP3, 48000Hz stereo 2ch 128 Kbps O'zbek tilida
Audio #2: AAC LC, 8 ch, 275 kbps, 48.0 kHz Inglizcha-

MediaInfo


General
Unique ID : 154605265960870354387873930512025057426 (0x744FE420ECDC7FA121E0C214EB0CF892)
Complete name : D:\Media\Multfilmlar\Multfilmlar\073) Spies in Disguise [ 2019 BDRip 1080p x265 10bit ] O`zbek tilida.mkv
Format : Matroska
Format version : Version 4
File size : 1.50 GiB
Duration : 1 h 41 min
Overall bit rate : 2 107 kb/s
Movie name : Kamuflyazh.i.shpionazh.2019.BDRip 1080p HEVC 10bit.Alltor.mkv
Encoded date : UTC 2020-03-27 07:13:35
Writing application : mkvmerge v44.0.0 ('Domino') 64-bit
Writing library : libebml v1.3.10 + libmatroska v1.5.2
Video
ID : 1
Format : HEVC
Format/Info : High Efficiency Video Coding
Format profile : Main 10@L4@Main
Codec ID : V_MPEGH/ISO/HEVC
Duration : 1 h 41 min
Bit rate : 1 702 kb/s
Width : 1 920 pixels
Height : 808 pixels
Display aspect ratio : 2.40:1
Frame rate mode : Constant
Frame rate : 23.976 (24000/1001) FPS
Color space : YUV
Chroma subsampling : 4:2:0
Bit depth : 10 bits
Bits/(Pixel*Frame) : 0.046
Stream size : 1.21 GiB (81%)
Default : Yes
Forced : No
Audio #1
ID : 2
Format : AAC LC SBR
Format/Info : Advanced Audio Codec Low Complexity with Spectral Band Replication
Commercial name : HE-AAC
Format settings : Explicit
Codec ID : A_AAC-2
Duration : 1 h 41 min
Bit rate : 275 kb/s
Channel(s) : 8 channels
Channel layout : C L R Ls Rs Lb Rb LFE
Sampling rate : 48.0 kHz
Frame rate : 23.438 FPS (2048 SPF)
Compression mode : Lossy
Delay relative to video : 31 ms
Stream size : 200 MiB (13%)
Title : Original
Language : English
Default : No
Forced : No
Audio #2
ID : 3
Format : MPEG Audio
Format version : Version 1
Format profile : Layer 3
Format settings : Joint stereo
Codec ID : A_MPEG/L3
Codec ID/Hint : MP3
Duration : 1 h 41 min
Bit rate mode : Constant
Bit rate : 128 kb/s
Channel(s) : 2 channels
Sampling rate : 44.1 kHz
Frame rate : 38.281 FPS (1152 SPF)
Compression mode : Lossy
Stream size : 93.2 MiB (6%)
Title : MilliyTV (UmarShoh_FL)
Writing library : LAME3.99.5
Language : Uzbek
Default : Yes
Forced : No
Text
ID : 4
Format : UTF-8
Codec ID : S_TEXT/UTF8
Codec ID/Info : UTF-8 Plain Text
Duration : 1 h 41 min
Bit rate : 66 b/s
Count of elements : 1909
Stream size : 49.0 KiB (0%)
Language : English
Default : No
Forced : No
Menu
00:00:00.000 : en:Chapter 01
00:04:09.499 : en:Chapter 02
00:06:54.497 : en:Chapter 03
00:11:54.422 : en:Chapter 04
00:15:31.013 : en:Chapter 05
00:20:35.484 : en:Chapter 06
00:23:20.857 : en:Chapter 07
00:26:42.434 : en:Chapter 08
00:30:59.524 : en:Chapter 09
00:36:06.581 : en:Chapter 10
00:41:34.950 : en:Chapter 11
00:45:41.947 : en:Chapter 12
00:49:57.786 : en:Chapter 13
00:53:58.902 : en:Chapter 14
00:56:34.307 : en:Chapter 15
01:00:06.769 : en:Chapter 16
01:08:46.831 : en:Chapter 17
01:12:51.784 : en:Chapter 18
01:17:34.566 : en:Chapter 19
01:20:18.939 : en:Chapter 20
01:23:19.077 : en:Chapter 21
01:26:05.243 : en:Chapter 22
01:29:47.173 : en:Chapter 23
01:33:08.874 : en:Chapter 24
Profil ShX

MRLG

Jins:
Yigit
Staj:
2 yil 9 oy
Xabarlar:
643
Taqiq:

Yaxshi multfilm. MY5 dan ko'rgandim.

Mavzu yaratish 27-Mar-2020 13:22 (38 daqiqa o‘tgach)

Iqitibos

Profil ShX

UmarShoh ®

Jins:
Yigit
Staj:
2 yil 2 oy
Xabarlar:
430
Taqiq:

MRLG, "Biz doim yaxshilarini taqdim etamiz" dermidi?! ag aa

Mavzu yaratish 27-Mar-2020 13:27 (4 daqiqa o‘tgach)

Iqitibos

Profil ShX

SArdor95

Jins:
Ko‘rsatilmagan
Staj:
1 yil 5 oy
Xabarlar:
4
Taqiq:

ko'chirishga yordam berilaa 95%da qotib qolgan 3kundan beri

Mavzu yaratish 29-Mar-2020 18:45 (2 kun 5 soat o‘tgach)

Iqitibos

Profil ShX
Xabarlarni ko‘rsatish:    

Hozirgi vaqt: 03-Iyun 20:07

Vaqtlar farqi: UTC + 5



Siz mavzu yaratishingiz mumkin emas
Siz xabarlarga javob qaytarishingiz mumkin emas
Siz o‘z xabarlaringizni tahrirlashingiz mumkin emas
Siz o‘z xabarlaringizni o‘chirishingiz mumkin emas
Siz so‘rovlarda ovoz berishingiz mumkin emas
Siz xabalarga fayllarni biriktirishingiz mumkin emas
Siz fayllarni ko‘chirishingiz mumkin emas