˂
˃
Tarqatmalar statistikasi
Ko‘chirmoqdaman: [ 8 ]
Ko‘chirib bo‘ldim: [ 21 ]
 
     
 
 

MRLG ®

Jins:
Yigit
Staj:
2 yil 9 oy
Xabarlar:
643
Taqiq:

-Madagaskar pingvinlari / Пингвины Мадагаскара / Penguins of Madagascar«Bu safar ular soyada qolmaydi»-
Ma'lumot:
    Chiqqan yili: 2014
    Davlat: AQSH
    Janr: Multfilm, komediya, sarguzasht, oilaviy
    Davomiyligi: 01:31:48
    Tarjima:
    • Rus dublyaj - [Litsenziya]
    • Professional ko'p ovozli - [MY5]
    Subtitrlar: ruscha-Rejisser: Erik Darnell, Simon J. Smit
-Rollarda:
    Tom MakGrat, Kris Miller, Kristofer Nayts, Konrad Vernon, Djon Malkovich, Benedikt Kamberbetch, Ken Jong, Annet Maxendru, Peter Stormare, Endi Rixter, Denni Djeykobs, Shon Chermets
-TAVSIF:
    To'rt pingvin-josus Shkipper, Kovalski, Riko va Prapor - himoyasiz hayvonlarga yordam berish uchun "Shimol shamoli" jamoasi bilan birlashadi. Ular bu dunyoni yo'q qilishni xohlaydigan yomon sakkizoyoq doktor Oktavius Braynni to'xtatishlari kerak...- -Sifat: BDRip-AVC
    Format: MKV
    Video: AVC 960x520 (1.85:1) 1829 kbps 23,976 fps 0,153 bpp
    Audio №1: Uzbek / MP3 / 2.0 / 48 kHz / 128 kbps / MY5
    Audio №2: rus / AC3 / 5.1 / 48 kHz / 448 kbps / Rus Litsenziya-

MI

General
Unique ID                                : 185740437586215487371742468541829954154 (0x8BBC4E9BAFC121C68DBF044F1BF93A6A)
Complete name                            : Pingviny.Madagaskara.2014.UZB.RUS.BDRip.x264.-[MRLG].mkv
Format                                   : Matroska
Format version                           : Version 2
File size                                : 1.54 GiB
Duration                                 : 1 h 31 min
Overall bit rate                         : 2 407 kb/s
Movie name                               : Penguins of Madagascar (2014) - HELLYWOOD
Encoded date                             : UTC 2020-02-02 16:46:09
Writing application                      : mkvmerge v7.8.0 ('River Man') 32bit built on Apr  3 2015 12:11:22
Writing library                          : libebml v1.3.1 + libmatroska v1.4.2
Video
ID                                       : 1
Format                                   : AVC
Format/Info                              : Advanced Video Codec
Format profile                           : High@L4.1
Format settings, CABAC                   : Yes
Format settings, ReFrames                : 12 frames
Codec ID                                 : V_MPEG4/ISO/AVC
Duration                                 : 1 h 31 min
Bit rate                                 : 1 829 kb/s
Width                                    : 960 pixels
Height                                   : 520 pixels
Display aspect ratio                     : 1.85:1
Frame rate mode                          : Constant
Frame rate                               : 23.976 (24000/1001) FPS
Color space                              : YUV
Chroma subsampling                       : 4:2:0
Bit depth                                : 8 bits
Scan type                                : Progressive
Bits/(Pixel*Frame)                       : 0.153
Stream size                              : 1.14 GiB (74%)
Title                                    : potroks
Writing library                          : x264 core 130 r2273 b3065e6
Encoding settings                        : cabac=1 / ref=12 / deblock=1:-1:-1 / analyse=0x3:0x133 / me=umh / subme=11 / psy=1 / psy_rd=1.03:0.05 / mixed_ref=1 / me_range=48 / chroma_me=1 / trellis=2 / 8x8dct=1 / cqm=0 / deadzone=21,11 / fast_pskip=0 / chroma_qp_offset=-3 / threads=9 / lookahead_threads=6 / sliced_threads=0 / nr=0 / decimate=0 / interlaced=0 / bluray_compat=0 / constrained_intra=0 / bframes=13 / b_pyramid=2 / b_adapt=2 / b_bias=0 / direct=3 / weightb=1 / open_gop=0 / weightp=2 / keyint=250 / keyint_min=23 / scenecut=40 / intra_refresh=0 / rc_lookahead=60 / rc=2pass / mbtree=0 / bitrate=1829 / ratetol=1.0 / qcomp=0.70 / qpmin=0 / qpmax=69 / qpstep=4 / cplxblur=20.0 / qblur=0.5 / vbv_maxrate=50000 / vbv_bufsize=62500 / nal_hrd=none / ip_ratio=1.35 / pb_ratio=1.25 / aq=1:0.80
Language                                 : English
Default                                  : Yes
Forced                                   : No
Audio #1
ID                                       : 2
Format                                   : MPEG Audio
Format version                           : Version 1
Format profile                           : Layer 3
Mode                                     : Joint stereo
Mode extension                           : MS Stereo
Codec ID                                 : A_MPEG/L3
Codec ID/Hint                            : MP3
Duration                                 : 1 h 31 min
Bit rate mode                            : Constant
Bit rate                                 : 128 kb/s
Channel(s)                               : 2 channels
Sampling rate                            : 48.0 kHz
Compression mode                         : Lossy
Stream size                              : 84.1 MiB (5%)
Title                                    : MY5 | MRLG
Writing library                          : LAME3.100Є
Language                                 : Uzbek
Default                                  : Yes
Forced                                   : Yes
Audio #2
ID                                       : 3
Format                                   : AC-3
Format/Info                              : Audio Coding 3
Mode extension                           : CM (complete main)
Format settings, Endianness              : Big
Codec ID                                 : A_AC3
Duration                                 : 1 h 31 min
Bit rate mode                            : Constant
Bit rate                                 : 448 kb/s
Channel(s)                               : 6 channels
Channel positions                        : Front: L C R, Side: L R, LFE
Sampling rate                            : 48.0 kHz
Frame rate                               : 31.250 FPS (1536 spf)
Compression mode                         : Lossy
Stream size                              : 294 MiB (19%)
Title                                    : Dub | DD 5.1 @ 448 kbps - BD NORDiC
Language                                 : Russian
Default                                  : No
Forced                                   : No
Text #1
ID                                       : 4
Format                                   : UTF-8
Codec ID                                 : S_TEXT/UTF8
Codec ID/Info                            : UTF-8 Plain Text
Title                                    : форс.
Language                                 : Russian
Default                                  : Yes
Forced                                   : No
Text #2
ID                                       : 5
Format                                   : UTF-8
Codec ID                                 : S_TEXT/UTF8
Codec ID/Info                            : UTF-8 Plain Text
Language                                 : Russian
Default                                  : No
Forced                                   : No
Menu
00:00:00.000                             : en:(01)00:00:00:000
00:03:38.718                             : en:(02)00:03:38:718
00:07:27.738                             : en:(03)00:07:27:738
00:09:24.272                             : en:(04)00:09:24:272
00:12:10.521                             : en:(05)00:12:10:521
00:16:09.301                             : en:(06)00:16:09:301
00:19:22.452                             : en:(07)00:19:22:452
00:23:05.509                             : en:(08)00:23:05:509
00:26:58.658                             : en:(09)00:26:58:658
00:29:01.322                             : en:(10)00:29:01:322
00:30:36.417                             : en:(11)00:30:36:417
00:34:01.205                             : en:(12)00:34:01:205
00:38:05.992                             : en:(13)00:38:05:992
00:41:31.197                             : en:(14)00:41:31:197
00:44:25.162                             : en:(15)00:44:25:162
00:46:39.880                             : en:(16)00:46:39:880
00:49:12.950                             : en:(17)00:49:12:950
00:54:31.559                             : en:(18)00:54:31:559
00:56:01.066                             : en:(19)00:56:01:066
01:00:04.017                             : en:(20)01:00:04:017
01:03:07.241                             : en:(21)01:03:07:241
01:06:41.998                             : en:(22)01:06:41:998
01:09:52.271                             : en:(23)01:09:52:271
01:12:10.409                             : en:(24)01:12:10:409
01:14:19.913                             : en:(25)01:14:19:913
01:15:59.012                             : en:(26)01:15:59:012
01:18:28.161                             : en:(27)01:18:28:161
01:20:49.636                             : en:(28)01:20:49:636
01:31:49.253                             : en:(29)01:31:49:253
LAVHALAR
Profil ShX
Xabarlarni ko‘rsatish:    

Hozirgi vaqt: 03-Iyun 20:46

Vaqtlar farqi: UTC + 5



Siz mavzu yaratishingiz mumkin emas
Siz xabarlarga javob qaytarishingiz mumkin emas
Siz o‘z xabarlaringizni tahrirlashingiz mumkin emas
Siz o‘z xabarlaringizni o‘chirishingiz mumkin emas
Siz so‘rovlarda ovoz berishingiz mumkin emas
Siz xabalarga fayllarni biriktirishingiz mumkin emas
Siz fayllarni ko‘chirishingiz mumkin emas