˂
˃
Tarqatmalar statistikasi
Ko‘chirmoqdaman: [ 3 ]
Ko‘chirib bo‘ldim: [ 20 ]
 
     
 
 

UmarShoh ®

Jins:
Yigit
Staj:
2 yil 2 oy
Xabarlar:
430
Taqiq:

- Olg'a / Onward-- -Chiqqan yili: 2020
Davlat: AQSH
Janr: Multfilm, sarguzasht, oilaviy
Davomiyligi: 01:43:05
Tarjima: Professional (MilliyTV) o'zbek tilida-Rejissyor: Dan Scanlon
Rollarni ovozlashtirganlar: Tom Holland (II), Chris Prett, Julia Luis-Dreyfus, John Rattsenberger, Octavia Spencer, Mel Rodriguez, Lina Weyte, Ali Wong, Gray DeLayl, Tracy Ulman.-Tavsif:
Tavsif: Elf aka-uka Ian va Arpa Lightfoot trollar, goblinlar, gnomlar,
kentavrlar va kichkina daraxtlar yashaydigan sehrli dunyoda yashaydilar.
Bir paytlar ularning dunyosi sehr bilan to'lib-toshgan edi, ammo o'sha kunlar o'tib ketdi,
endi ajoyib jonzotlar samolyotlarda uchib, avtoulovlardan foydalanishadi va umuman nasriy hayot kechirishadi.
Biroq, kutilmagan topilma, aka-ukalar qadimgi afsonalardan haqiqiy sehrni izlash uchun qiziqarli sayohatga borishga qaror qilishlariga olib keladi.-Videoning sifati: WEB-DL HEVC 1080p 10 bit
Video format: MKV
Video: HEVC 1920x800 23.976fps 2357 Kbps
Audio #1: MP3, 48000Hz stereo 2ch 128 Kbps O'zbek tilida
Audio #2: AAC LC, 6 ch, 384 kbps, 48.0 kHz Inglizcha-

MediaInfo


General
Unique ID : 328309512418517150975906160178423354096 (0xF6FE1CB28BD6DD05AACEBF77852352F0)
Complete name : D:\Media\Multfilmlar\Multfilmlar\072) Onward [ 2020 WEB-DL 1080p x265 10bit ] O`zbek tilida.mkv
Format : Matroska
Format version : Version 4
File size : 2.05 GiB
Duration : 1 h 42 min
Overall bit rate : 2 871 kb/s
Movie name : EVO
Encoded date : UTC 2020-03-25 17:36:29
Writing application : mkvmerge v44.0.0 ('Domino') 64-bit
Writing library : libebml v1.3.10 + libmatroska v1.5.2
Cover : Yes
Attachments : cover.jpg
Video
ID : 1
Format : HEVC
Format/Info : High Efficiency Video Coding
Format profile : Main 10@L4@Main
Codec ID : V_MPEGH/ISO/HEVC
Duration : 1 h 42 min
Bit rate : 2 357 kb/s
Width : 1 920 pixels
Height : 800 pixels
Display aspect ratio : 2.40:1
Frame rate mode : Constant
Frame rate : 23.976 (24000/1001) FPS
Original frame rate : 25.000 FPS
Color space : YUV
Chroma subsampling : 4:2:0
Bit depth : 10 bits
Bits/(Pixel*Frame) : 0.064
Stream size : 1.69 GiB (82%)
Writing library : x265 3.2+9-971180b100f8:[Windows][MSVC 1923][64 bit] 10bit
Encoding settings : cpuid=1111039 / frame-threads=3 / numa-pools=8 / wpp / no-pmode / no-pme / no-psnr / ssim / log-level=2 / input-csp=1 / input-res=1920x800 / interlace=0 / total-frames=147259 / level-idc=0 / high-tier=1 / uhd-bd=0 / ref=4 / no-allow-non-conformance / no-repeat-headers / annexb / no-aud / no-hrd / info / hash=0 / no-temporal-layers / open-gop / min-keyint=25 / keyint=250 / gop-lookahead=0 / bframes=8 / b-adapt=2 / b-pyramid / bframe-bias=20 / rc-lookahead=80 / lookahead-slices=4 / scenecut=40 / radl=0 / no-splice / no-intra-refresh / ctu=64 / min-cu-size=8 / rect / no-amp / max-tu-size=32 / tu-inter-depth=1 / tu-intra-depth=1 / limit-tu=0 / rdoq-level=2 / dynamic-rd=0.00 / ssim-rd / signhide / no-tskip / nr-intra=0 / nr-inter=0 / constrained-intra / strong-intra-smoothing / max-merge=5 / limit-refs=3 / limit-modes / me=3 / subme=5 / merange=57 / temporal-mvp / no-frame-dup / no-hme / weightp / no-weightb / no-analyze-src-pics / deblock=-2:-2 / sao / no-sao-non-deblock / rd=4 / selective-sao=4 / early-skip / rskip / no-fast-intra / no-tskip-fast / no-cu-lossless / no-b-intra / no-splitrd-skip / rdpenalty=0 / psy-rd=2.50 / psy-rdoq=1.50 / no-rd-refine / no-lossless / cbqpoffs=0 / crqpoffs=0 / rc=crf / crf=21.5 / qcomp=0.60 / qpstep=4 / stats-write=0 / stats-read=0 / ipratio=1.40 / pbratio=1.30 / aq-mode=3 / aq-strength=0.40 / cutree / zone-count=0 / no-strict-cbr / qg-size=32 / no-rc-grain / qpmax=69 / qpmin=0 / no-const-vbv / sar=0 / overscan=0 / videoformat=5 / range=0 / colorprim=2 / transfer=2 / colormatrix=2 / chromaloc=0 / display-window=0 / cll=0,0 / min-luma=0 / max-luma=1023 / log2-max-poc-lsb=8 / vui-timing-info / vui-hrd-info / slices=1 / no-opt-qp-pps / no-opt-ref-list-length-pps / no-multi-pass-opt-rps / scenecut-bias=0.05 / no-opt-cu-delta-qp / no-aq-motion / no-hdr / no-hdr-opt / no-dhdr10-opt / no-idr-recovery-sei / analysis-reuse-level=5 / scale-factor=0 / refine-intra=0 / refine-inter=0 / refine-mv=1 / refine-ctu-distortion=0 / no-limit-sao / ctu-info=0 / no-lowpass-dct / refine-analysis-type=0 / copy-pic=1 / max-ausize-factor=1.0 / no-dynamic-refine / no-single-sei / no-hevc-aq / no-svt / no-field / qp-adaptation-range=1.00
Default : Yes
Forced : No
Audio #1
ID : 2
Format : AC-3
Format/Info : Audio Coding 3
Commercial name : Dolby Digital
Codec ID : A_AC3
Duration : 1 h 42 min
Bit rate mode : Constant
Bit rate : 384 kb/s
Channel(s) : 6 channels
Channel layout : L R C LFE Ls Rs
Sampling rate : 48.0 kHz
Frame rate : 31.250 FPS (1536 SPF)
Compression mode : Lossy
Stream size : 281 MiB (13%)
Language : English
Service kind : Complete Main
Default : Yes
Forced : No
Audio #2
ID : 3
Format : MPEG Audio
Format version : Version 1
Format profile : Layer 3
Format settings : Joint stereo / MS Stereo
Codec ID : A_MPEG/L3
Codec ID/Hint : MP3
Duration : 1 h 42 min
Bit rate mode : Constant
Bit rate : 128 kb/s
Channel(s) : 2 channels
Sampling rate : 44.1 kHz
Frame rate : 38.281 FPS (1152 SPF)
Compression mode : Lossy
Stream size : 93.7 MiB (4%)
Title : Milliy_TV (UmarShoh_FL)
Writing library : LAME3.99.5
Language : Uzbek
Default : No
Forced : No
Text
ID : 4
Format : UTF-8
Codec ID : S_TEXT/UTF8
Codec ID/Info : UTF-8 Plain Text
Duration : 1 h 35 min
Bit rate : 68 b/s
Count of elements : 1631
Stream size : 47.8 KiB (0%)
Language : English
Default : No
Forced : No
Menu
00:00:00.000 : en:Prologue
00:02:29.357 : en:Choatic House
00:07:05.716 : en:Dad's Legacy
00:08:13.658 : en:School Fail
00:12:44.345 : en:Tape Recorder
00:14:53.056 : en:The Gift
00:19:20.364 : en:Conjuring Dad
00:23:45.379 : en:Off We Go
00:25:34.071 : en:Mom Finds Note
00:26:10.439 : en:Loosen Up
00:27:24.763 : en:Manticore's Tavern
00:30:01.461 : en:Fallen Idol
00:32:48.461 : en:The Plan
00:34:42.950 : en:Mom and Manticore
00:36:40.107 : en:Bigger Man
00:40:41.306 : en:Gas Station
00:42:48.057 : en:The Curse
00:44:01.462 : en:Sprite Insult
00:45:40.434 : en:Driving Test
00:47:48.477 : en:Honesty
00:52:00.687 : en:Dance Fight
00:55:11.460 : en:Pawn Shop
00:57:24.342 : en:Trust Bridge
01:02:22.639 : en:Change of Plans
01:04:02.280 : en:Sacrifice
01:07:12.386 : en:Following Ravens
01:08:48.356 : en:Underground
01:10:05.474 : en:To The Skies
01:11:11.580 : en:Reward
01:13:12.367 : en:Working Together
01:15:58.031 : en:Lowest Low
01:17:36.336 : en:Father Figure
01:20:25.629 : en:Dragon High
01:25:00.569 : en:Master Wizard
01:26:58.895 : en:Meeting Dad
01:30:10.085 : en:Epilogue
01:32:49.452 : en:Credits
Profil ShX

Siroj Ruzimuratov

Jins:
Yigit
Staj:
10 oy 30 kun
Xabarlar:
5

Qayerdan: Uzbekistan, Cizah

Taqiq:

hamma kochirib qochmasinda iya

Mavzu yaratish 29-Mar-2020 12:44 (2 kun 21 soat o‘tgach)

Iqitibos

Profil ShX

farrux1981

Jins:
Yigit
Staj:
1 yil
Xabarlar:
45
Taqiq:

Men tarqatishdaman-ku

Mavzu yaratish 29-Mar-2020 13:13 (28 daqiqa o‘tgach)

Iqitibos

Profil ShX
Xabarlarni ko‘rsatish:    

Hozirgi vaqt: 04-Iyun 04:18

Vaqtlar farqi: UTC + 5



Siz mavzu yaratishingiz mumkin emas
Siz xabarlarga javob qaytarishingiz mumkin emas
Siz o‘z xabarlaringizni tahrirlashingiz mumkin emas
Siz o‘z xabarlaringizni o‘chirishingiz mumkin emas
Siz so‘rovlarda ovoz berishingiz mumkin emas
Siz xabalarga fayllarni biriktirishingiz mumkin emas
Siz fayllarni ko‘chirishingiz mumkin emas