˂
˃
Tarqatmalar statistikasi
Ko‘chirmoqdaman: [ 1 ]
Ko‘chirib bo‘ldim: [ 18 ]
 
     
 
 

MRLG ®

Jins:
Yigit
Staj:
2 yil 9 oy
Xabarlar:
643
Taqiq:

Zarqushni izlab | Как поймать перо Жар-Птицы MULTFILM HAQIDA MA'LUMOT
Chiqqan yili: 2013
Davlat: Rossiya
Janr: multfilm, fentezi
Davomiyligi: 01:08:40
Tarjima: Ko'povozli professional tarjima (MilliyTV)
Rejisser: Georgiy Gitis, Vyacheslav Plotnikov
Rollarda
Mixail Ozerov, Dmitriy Dyujev, Yuliya Savicheva, Andrey Leonov, Nonna Grishayeva, Aleksey Kolgan, Mixail Xrustalyov, Anatoliy Petrov, Yuliya Galdun, Vladimir Gorbunov, Dmitriy Polyanovskiy, Valentina Richagova
Tavsif
Podshoh Berendeyning irodasini bajarish uchun uning eng kichik o'g'li Ivan zarqushni izlaydi. Ivan Tsarevich omadini qidirishda sodiq do'st va yordamchi - kulrang bo'ri hamroh bo'ladi, u har qanday ko'nikmaga ega va har doim sodda Ivanga yordam berishga shoshiladi. Qahramonlar qiziqarli va xavfli sarguzashtlarni, Ivanning birodarlarining hiyla-nayranglarini va go'zal Yelena bilan taqdir uchrashuvini kutmoqda.-Tex.ma'lumot
-Sifat: BDRip-AVC
Format: MKV
Video: AVC 1152x648 (16:9) 2599 kbps 24 fps 0,145 bpp
Audio №1: Uzbek / MP3 / 2.0 / 48 kHz / 128 kbps / MilliyTV
Audio №2: Rus / AC3 / 5.1 / 48 kHz / 448 kbps / Original-

MI

General
Unique ID                                : 213762076641095716804398540292186052590 (0xA0D114147F0CCDB88E51D23BC4FE17EE)
Complete name                            : D:\Кино\Дубляж фильмлар\HD Films Collection\Multfilmlar to'plami HD\Zarqushni izlab.2013.BDRip-AVC.[-MRLG].mkv
Format                                   : Matroska
Format version                           : Version 2
File size                                : 1.52 GiB
Duration                                 : 1 h 8 min
Overall bit rate                         : 3 177 kb/s
Movie name                               : HELLYWOOD - rip by potroks
Encoded date                             : UTC 2020-02-01 06:40:26
Writing application                      : mkvmerge v7.8.0 ('River Man') 32bit built on Apr  3 2015 12:11:22
Writing library                          : libebml v1.3.1 + libmatroska v1.4.2
Video
ID                                       : 1
Format                                   : AVC
Format/Info                              : Advanced Video Codec
Format profile                           : High@L4.1
Format settings, CABAC                   : Yes
Format settings, ReFrames                : 12 frames
Codec ID                                 : V_MPEG4/ISO/AVC
Duration                                 : 1 h 8 min
Bit rate                                 : 2 599 kb/s
Width                                    : 1 152 pixels
Height                                   : 648 pixels
Display aspect ratio                     : 16:9
Frame rate mode                          : Constant
Frame rate                               : 24.000 FPS
Color space                              : YUV
Chroma subsampling                       : 4:2:0
Bit depth                                : 8 bits
Scan type                                : Progressive
Bits/(Pixel*Frame)                       : 0.145
Stream size                              : 1.22 GiB (80%)
Title                                    : Как поймать перо Жар-Птицы
Writing library                          : x264 core 130 r2273 b3065e6
Encoding settings                        : cabac=1 / ref=12 / deblock=1:-1:-1 / analyse=0x3:0x133 / me=umh / subme=11 / psy=1 / psy_rd=1.05:0.00 / mixed_ref=1 / me_range=32 / chroma_me=1 / trellis=2 / 8x8dct=1 / cqm=0 / deadzone=21,11 / fast_pskip=0 / chroma_qp_offset=-2 / threads=9 / lookahead_threads=8 / sliced_threads=0 / nr=0 / decimate=0 / interlaced=0 / bluray_compat=0 / constrained_intra=0 / bframes=13 / b_pyramid=2 / b_adapt=2 / b_bias=0 / direct=3 / weightb=1 / open_gop=0 / weightp=2 / keyint=250 / keyint_min=23 / scenecut=40 / intra_refresh=0 / rc_lookahead=60 / rc=2pass / mbtree=0 / bitrate=2599 / ratetol=1.0 / qcomp=0.70 / qpmin=0 / qpmax=69 / qpstep=4 / cplxblur=20.0 / qblur=0.5 / vbv_maxrate=20000 / vbv_bufsize=25000 / nal_hrd=none / ip_ratio=1.35 / pb_ratio=1.25 / aq=1:0.70
Language                                 : Russian
Default                                  : Yes
Forced                                   : No
Audio #1
ID                                       : 2
Format                                   : MPEG Audio
Format version                           : Version 1
Format profile                           : Layer 3
Mode                                     : Joint stereo
Mode extension                           : MS Stereo
Codec ID                                 : A_MPEG/L3
Codec ID/Hint                            : MP3
Duration                                 : 1 h 8 min
Bit rate mode                            : Constant
Bit rate                                 : 128 kb/s
Channel(s)                               : 2 channels
Sampling rate                            : 48.0 kHz
Compression mode                         : Lossy
Stream size                              : 62.9 MiB (4%)
Title                                    : MilliyTV | MRLG
Writing library                          : LAME3.100Є
Language                                 : Uzbek
Default                                  : Yes
Forced                                   : Yes
Audio #2
ID                                       : 3
Format                                   : AC-3
Format/Info                              : Audio Coding 3
Mode extension                           : CM (complete main)
Format settings, Endianness              : Big
Codec ID                                 : A_AC3
Duration                                 : 1 h 8 min
Bit rate mode                            : Constant
Bit rate                                 : 448 kb/s
Channel(s)                               : 6 channels
Channel positions                        : Front: L C R, Side: L R, LFE
Sampling rate                            : 48.0 kHz
Frame rate                               : 31.250 FPS (1536 spf)
Compression mode                         : Lossy
Stream size                              : 220 MiB (14%)
Title                                    : DD 5.1 @ 448 kbps
Language                                 : Russian
Default                                  : No
Forced                                   : No
Menu
00:00:00.000                             : en:00:00:00.000
00:08:01.625                             : en:00:08:01.625
00:17:43.167                             : en:00:17:43.167
00:25:37.250                             : en:00:25:37.250
00:34:31.917                             : en:00:34:31.917
00:42:31.417                             : en:00:42:31.417
00:50:48.208                             : en:00:50:48.208
00:59:22.708                             : en:00:59:22.708
LAVHALAR
Profil ShX
Xabarlarni ko‘rsatish:    

Hozirgi vaqt: 03-Iyun 20:22

Vaqtlar farqi: UTC + 5



Siz mavzu yaratishingiz mumkin emas
Siz xabarlarga javob qaytarishingiz mumkin emas
Siz o‘z xabarlaringizni tahrirlashingiz mumkin emas
Siz o‘z xabarlaringizni o‘chirishingiz mumkin emas
Siz so‘rovlarda ovoz berishingiz mumkin emas
Siz xabalarga fayllarni biriktirishingiz mumkin emas
Siz fayllarni ko‘chirishingiz mumkin emas