˂
˃
Tarqatmalar statistikasi
Ko‘chirmoqdaman: [ 1 ]
Ko‘chirib bo‘ldim: [ 8 ]
 
     
 
 

Muxammad-ali ®

Jins:
Yigit
Staj:
4 oy 2 kun
Xabarlar:
2
Taqiq:

Avaz Oxun - O'zbekcha kulgi nomli konsert dasturi-- Chiqqan yili: 2019
Davlat: O`zbekiston
Janri: Komediya
Davomiyligi: 02:46:11
Tarjima: O'zbek Tilida--Rejissiyor: Avaz Oxun
Rollarda: Avaz Oxun, O'tkir Siddiqov, Diyorbek Faxriyev, Dastur mehmoni Alijon isoqov.--Tavsif: O'zbek xalqi uchun taniqli qiziqchi Avaz Oxunning Istiqlol san'at saroyida 2019 yil 17, 18, 19, 20 - noyabr kunlari bo'lib o'tgan navbatdagi "O'zbekcha kulgu" nomli konsert dasturini tomosha qilishga taklif etamiz. Konsertni taniqli boshlovchi O'tkir Siddiqov olib boradi. Dastur davomida Vohidjon Isoqov ijrosida qo'shiqlarni tinglashingiz mumkin--Sifat: WEB-DL 1080p
Format: MP4
Video: | AVC | 1920x1080 | 25fps | 1933kbps |
Audio: | AAC | 44100Hz stereo | 127kbps |

Media Info

General
Complete name : E:\Downloads\Videos\Концерты\Avaz Oxun - O'zbekcha kulgi nomli konsert dasturi 2019.mp4
Format : MPEG-4
Format profile : Base Media
Codec ID : isom (isom/iso2/avc1/mp41)
File size : 2.40 GiB
Duration : 2 h 46 min
Overall bit rate : 2 068 kb/s
Writing application : Lavf58.33.100
Video
ID : 1
Format : AVC
Format/Info : Advanced Video Codec
Format profile : High@L4
Format settings, CABAC : Yes
Format settings, RefFrames : 3 frames
Codec ID : avc1
Codec ID/Info : Advanced Video Coding
Duration : 2 h 46 min
Bit rate : 1 934 kb/s
Width : 1 920 pixels
Height : 1 080 pixels
Display aspect ratio : 16:9
Frame rate mode : Constant
Frame rate : 25.000 FPS
Color space : YUV
Chroma subsampling : 4:2:0
Bit depth : 8 bits
Scan type : Progressive
Bits/(Pixel*Frame) : 0.037
Stream size : 2.24 GiB (94%)
Title : ISO Media file produced by Google Inc.
Writing library : x264 core 155 r2901 7d0ff22
Color range : Limited
Color primaries : BT.709
Transfer characteristics : BT.709
Matrix coefficients : BT.709
Audio
ID : 2
Format : AAC
Format/Info : Advanced Audio Codec
Format profile : LC
Codec ID : 40
Duration : 2 h 46 min
Bit rate mode : Constant
Bit rate : 128 kb/s
Channel(s) : 2 channels
Channel positions : Front: L R
Sampling rate : 44.1 kHz
Frame rate : 43.066 FPS (1024 SPF)
Compression mode : Lossy
Stream size : 152 MiB (6%)
Title : ISO Media file produced by Google Inc.
Language : English
Default : Yes
Alternate group : 1
LAVHALAR
Profil ShX
Xabarlarni ko‘rsatish:    

Hozirgi vaqt: 01-Iyun 21:25

Vaqtlar farqi: UTC + 5



Siz mavzu yaratishingiz mumkin emas
Siz xabarlarga javob qaytarishingiz mumkin emas
Siz o‘z xabarlaringizni tahrirlashingiz mumkin emas
Siz o‘z xabarlaringizni o‘chirishingiz mumkin emas
Siz so‘rovlarda ovoz berishingiz mumkin emas
Siz xabalarga fayllarni biriktirishingiz mumkin emas
Siz fayllarni ko‘chirishingiz mumkin emas