˂
˃
Tarqatmalar statistikasi
Ko‘chirmoqdaman: [ 4 ]
Ko‘chirib bo‘ldim: [ 21 ]
 
     
 
 

Ahmadullo ®

Jins:
Yigit
Staj:
7 oy 9 kun
Xabarlar:
72
Taqiq:

Dovyurak 2 / Отважная 2 / Mardaani 2
--Chiqqan yili: 2019
Davlat: Hindiston
Janr: Triller, jinoyat
Davomiyligi: 01:43:25
Tarjima: Professional O'zbek tilida SevimliTV
Tarjima 2: Professional (Original) Hind tilida--Rejissyor: Gopi Putran--Rollarda: Rani Mukerji, Shruti Bapna, Jishu Sengupta, Rajesh Sharma, Kirti Chovdri, Garima Jain, Vikram Singx Chauxan, Deepika Deshpande--Film Haqida: Mumbayda ketma-ket qotil qizlarni o'g'irlab, ularni masxara qilib, oxir oqibat shafqatsizlarcha o'ldirmoqda. Halol va buzilmas politsiya xodimi uchun manyakni qo'lga olish sharaf masalasiga aylanadi.--Videoning sifati: WEB-DL 720p
Video format: MKV-Video: MPEG4 (H264) 1280x528 24fps 1 196 kb/s
Audio: AAC 44100Hz stereo O'zbek tili
Audio 2: EAC3 48000Hz 5.1 Hind tili
Subtitrlar: Ingliz tilida--

Media Info

General
Unique ID : 287488024967596520139886498246255426457 (0xD8482DF9DBB49A8C0E56522E8A5BBB99)
Complete name : K:\MEDIA\HD MOVIES\TARJIMA HD x264 x265\2019-2020\Dovyurak.2.2019.720p.WEB-DL.mkv
Format : Matroska
Format version : Version 4
File size : 1.15 GiB
Duration : 1 h 43 min
Overall bit rate : 1 585 kb/s
Movie name : Source :- UncutHD
Encoded date : UTC 2020-02-24 12:36:18
Writing application : mkvmerge v21.0.0 ('Tardigrades Will Inherit The Earth') 64-bit
Writing library : libebml v1.3.5 + libmatroska v1.4.8
Video
ID : 1
Format : AVC
Format/Info : Advanced Video Codec
Format profile : High@L3.1
Format settings : CABAC / 5 Ref Frames
Format settings, CABAC : Yes
Format settings, Reference fra : 5 frames
Codec ID : V_MPEG4/ISO/AVC
Duration : 1 h 43 min
Bit rate : 1 196 kb/s
Width : 1 280 pixels
Height : 528 pixels
Display aspect ratio : 2.40:1
Original display aspect ratio : 2.40:1
Frame rate mode : Constant
Frame rate : 24.000 FPS
Color space : YUV
Chroma subsampling : 4:2:0
Bit depth : 8 bits
Scan type : Progressive
Bits/(Pixel*Frame) : 0.074
Stream size : 885 MiB (75%)
Title : telegram @lightroom6
Language : Uzbek
Default : Yes
Forced : No
Color range : Limited
Color primaries : BT.709
Transfer characteristics : BT.709
Matrix coefficients : BT.709
Audio #1
ID : 2
Format : AAC LC
Format/Info : Advanced Audio Codec Low Complexity
Codec ID : A_AAC-2
Duration : 1 h 43 min
Bit rate : 192 kb/s
Channel(s) : 2 channels
Channel layout : L R
Sampling rate : 44.1 kHz
Frame rate : 43.066 FPS (1024 SPF)
Compression mode : Lossy
Stream size : 144 MiB (12%)
Title : uzb by MUAH
Language : Russian
Default : Yes
Forced : Yes
Audio #2
ID : 3
Format : E-AC-3
Format/Info : Enhanced AC-3
Commercial name : Dolby Digital Plus
Codec ID : A_EAC3
Duration : 1 h 43 min
Bit rate mode : Constant
Bit rate : 192 kb/s
Channel(s) : 6 channels
Channel layout : L R C LFE Ls Rs
Sampling rate : 48.0 kHz
Frame rate : 31.250 FPS (1536 SPF)
Compression mode : Lossy
Stream size : 142 MiB (12%)
Title : Source :- UncutHD
Language : Hindi
Service kind : Complete Main
Default : No
Forced : No
Text #1
ID : 4
Format : UTF-8
Codec ID : S_TEXT/UTF8
Codec ID/Info : UTF-8 Plain Text
Duration : 20 s 24 ms
Bit rate : 25 b/s
Count of elements : 2
Stream size : 64.0 Bytes (0%)
Title : reliz
Language : Russian
Default : Yes
Forced : Yes
Text #2
ID : 5
Format : UTF-8
Codec ID : S_TEXT/UTF8
Codec ID/Info : UTF-8 Plain Text
Duration : 1 h 38 min
Bit rate : 60 b/s
Count of elements : 1251
Stream size : 43.4 KiB (0%)
Title : Source :- UncutHD
Language : English
Default : No
Forced : No
LAVHALAR
Profil ShX

MRLG

Jins:
Yigit
Staj:
2 yil 9 oy
Xabarlar:
643
Taqiq:

Ahmadullo, Reliz muqovasini o'lchami balandligi 600px kengligi 400px (500) pikseldan oshmasligi kerak.

Mavzu yaratish 25-Fev-2020 22:20 (1 kun 4 soat o‘tgach)

Iqitibos

Profil ShX

Ahmadullo ®

Jins:
Yigit
Staj:
7 oy 9 kun
Xabarlar:
72
Taqiq:

MRLG, aha hop

Mavzu yaratish 25-Fev-2020 22:30 (10 daqiqa o‘tgach)

Iqitibos

Profil ShX

Unofficial

Jins:
Yigit
Staj:
2 yil 2 oy
Xabarlar:
452

Qayerdan: Nukus

Taqiq:

Ahmadullo, har kuni 5 mb dan tarqatayapsizmi deyman a?

Mavzu yaratish 10-Mar-2020 19:01 (13 kun o‘tgach)

Iqitibos

Profil ShX
Xabarlarni ko‘rsatish:    

Hozirgi vaqt: 01-Iyun 21:58

Vaqtlar farqi: UTC + 5



Siz mavzu yaratishingiz mumkin emas
Siz xabarlarga javob qaytarishingiz mumkin emas
Siz o‘z xabarlaringizni tahrirlashingiz mumkin emas
Siz o‘z xabarlaringizni o‘chirishingiz mumkin emas
Siz so‘rovlarda ovoz berishingiz mumkin emas
Siz xabalarga fayllarni biriktirishingiz mumkin emas
Siz fayllarni ko‘chirishingiz mumkin emas