˂
˃
Tarqatmalar statistikasi
Ko‘chiraman: [ 1 ]
Ko‘chirmoqdaman: [ 22 ]
Ko‘chirib bo‘ldim: [ 3 ]
 
     
 
 

Ahmadullo ®

Jins:
Yigit
Staj:
7 oy 9 kun
Xabarlar:
72
Taqiq:

Nokaut / Нокаут / Haywire
--Chiqqan yili: 2011
Davlat: AQSh, Irlandiya
Janr: Jangari, triller
Davomiyligi: 01:32:52
Tarjima: Professional (Dublyaj) O'zbek tilida (My5TV)
Tarjima 2: Professional (Bir ovozli) Rus tilida
Tarjima 3: Professional (Original) Ingliz tilida--Rejissyor: Steven Soderbergh--Rollarda: Jina Karano, Evan MakGregor, Maykl Duglas, Antonio Banderas, Channing Tatum, Mateu Kassowitz, Maykl Fassbender, Maykl Angarano, Debbi Linn Ross, Julian Alkaraz--Film Haqida: Mallory Keyn maxfiy maxsus agent. U yosh, aqlli va chiroyli. Vaqti-vaqti bilan xalqaro maxsus xizmatlarning boshlig'i Kennet uni har doim hukumat tomonidan ruxsat berilmagan vazifalarni bajarishga chaqiradi. Ammo ketma-ket operatsiyalarning muvaffaqiyatsizligidan so'ng, Mallory o'zining juft o'yinda garov ekanligini tushunadi. Endi u xalqaro qidiruvda bo'lishdan yashirish, oilasini himoya qilish va xiyonat uchun qasos olish uchun o'zining barcha iste'dodi va tajribasidan foydalanishi kerak ...--Videoning sifati: BDRip
Video format: MKV-Video: MPEG4 H264 1200x500 23.97fps 1 473 kb/s
Audio: AAC 44000Hz stereo O'zbek tili
Audio 2: AC3 48000Hz 5.1 384kb/s Rus tili
Audio 3: AC3 48000Hz 5.1 384kb/s Ingliz tili
Subtitrlar: Ingliz tilida--

Media Info

General
Unique ID : 62437276065334155898430977560808393091 (0x2EF8FB61DCE999C5658998CBCFCE0983)
Complete name : K:\MEDIA\HD MOVIES\TARJIMA HD x264 x265\2019-2020\Nokaut.2011.BDRip.mkv
Format : Matroska
Format version : Version 4
File size : 1.58 GiB
Duration : 1 h 32 min
Overall bit rate : 2 436 kb/s
Encoded date : UTC 2020-02-24 12:19:14
Writing application : mkvmerge v21.0.0 ('Tardigrades Will Inherit The Earth') 64-bit
Writing library : libebml v1.3.5 + libmatroska v1.4.8
Video
ID : 1
Format : AVC
Format/Info : Advanced Video Codec
Format profile : High@L4
Format settings : CABAC / 10 Ref Frames
Format settings, CABAC : Yes
Format settings, Reference fra : 10 frames
Codec ID : V_MPEG4/ISO/AVC
Duration : 1 h 32 min
Bit rate : 1 473 kb/s
Width : 1 200 pixels
Height : 500 pixels
Display aspect ratio : 2.40:1
Frame rate mode : Constant
Frame rate : 23.976 (24000/1001) FPS
Color space : YUV
Chroma subsampling : 4:2:0
Bit depth : 8 bits
Scan type : Progressive
Bits/(Pixel*Frame) : 0.102
Stream size : 978 MiB (60%)
Title : Nokaut.chopper887
Writing library : x264 core 120 r2164 da19765
Encoding settings : cabac=1 / ref=10 / deblock=1:-2:-1 / analyse=0x3:0x133 / me=umh / subme=11 / psy=1 / psy_rd=1.00:0.10 / mixed_ref=1 / me_range=32 / chroma_me=1 / trellis=2 / 8x8dct=1 / cqm=0 / deadzone=21,11 / fast_pskip=0 / chroma_qp_offset=-3 / threads=12 / sliced_threads=0 / nr=0 / decimate=1 / interlaced=0 / bluray_compat=0 / constrained_intra=0 / bframes=10 / b_pyramid=2 / b_adapt=2 / b_bias=0 / direct=3 / weightb=1 / open_gop=0 / weightp=2 / keyint=240 / keyint_min=23 / scenecut=40 / intra_refresh=0 / rc_lookahead=80 / rc=2pass / mbtree=1 / bitrate=1473 / ratetol=1.0 / qcomp=0.60 / qpmin=10 / qpmax=51 / qpstep=4 / cplxblur=20.0 / qblur=0.5 / ip_ratio=1.40 / aq=1:1.00
Language : English
Default : Yes
Forced : No
Audio #1
ID : 2
Format : AAC LC
Format/Info : Advanced Audio Codec Low Complexity
Codec ID : A_AAC-2
Duration : 1 h 32 min
Bit rate : 192 kb/s
Channel(s) : 2 channels
Channel layout : L R
Sampling rate : 44.1 kHz
Frame rate : 43.066 FPS (1024 SPF)
Compression mode : Lossy
Stream size : 129 MiB (8%)
Title : uzb by MUAH
Language : Russian
Default : Yes
Forced : Yes
Audio #2
ID : 3
Format : AC-3
Format/Info : Audio Coding 3
Commercial name : Dolby Digital
Codec ID : A_AC3
Duration : 1 h 32 min
Bit rate mode : Constant
Bit rate : 384 kb/s
Channel(s) : 6 channels
Channel layout : L R C LFE Ls Rs
Sampling rate : 48.0 kHz
Frame rate : 31.250 FPS (1536 SPF)
Bit depth : 16 bits
Compression mode : Lossy
Stream size : 255 MiB (16%)
Title : Rus
Service kind : Complete Main
Default : No
Forced : No
Audio #3
ID : 4
Format : AC-3
Format/Info : Audio Coding 3
Commercial name : Dolby Digital
Codec ID : A_AC3
Duration : 1 h 32 min
Bit rate mode : Constant
Bit rate : 384 kb/s
Channel(s) : 6 channels
Channel layout : L R C LFE Ls Rs
Sampling rate : 48.0 kHz
Frame rate : 31.250 FPS (1536 SPF)
Bit depth : 16 bits
Compression mode : Lossy
Stream size : 255 MiB (16%)
Title : Eng
Service kind : Complete Main
Default : No
Forced : No
Text #1
ID : 5
Format : UTF-8
Codec ID : S_TEXT/UTF8
Codec ID/Info : UTF-8 Plain Text
Duration : 20 s 24 ms
Bit rate : 25 b/s
Count of elements : 2
Stream size : 64.0 Bytes (0%)
Title : reliz
Language : Russian
Default : Yes
Forced : Yes
Text #2
ID : 6
Format : UTF-8
Codec ID : S_TEXT/UTF8
Codec ID/Info : UTF-8 Plain Text
Duration : 1 h 25 min
Bit rate : 37 b/s
Count of elements : 720
Stream size : 23.3 KiB (0%)
Title : Eng
Default : No
Forced : No
LAVHALAR
Profil ShX

showmusic77077

Jins:
Ko‘rsatilmagan
Staj:
6 oy 1 kun
Xabarlar:
6
Taqiq:

tortvolishga yordam berilaaaaaaaaaaaaaaaaaaa

Mavzu yaratish 04-Mar-2020 11:05 (8 kun o‘tgach)

Iqitibos

Profil ShX

Soft-Release

Jins:
Yigit
Staj:
2 yil 2 oy
Xabarlar:
857

Qayerdan: Kattakurgan

Taqiq:

showmusic77077, Sabr Bilan Endi Bu Yog'i

Mavzu yaratish 13-Mar-2020 05:32 (8 kun o‘tgach)

Iqitibos

Profil ShX

showmusic77077

Jins:
Ko‘rsatilmagan
Staj:
6 oy 1 kun
Xabarlar:
6
Taqiq:

Ahmadullo, aka 58.6da qotib turibdi yordam qivorsezci iltimos

Mavzu yaratish 26-Mar-2020 17:48 (13 kun o‘tgach)

Iqitibos

Profil ShX

SArdor95

Jins:
Ko‘rsatilmagan
Staj:
1 yil 5 oy
Xabarlar:
4
Taqiq:

ko'chirishga yordam bervorilaa

Mavzu yaratish 01-Apr-2020 13:19 (5 kun o‘tgach)

Iqitibos

Profil ShX

showmusic77077

Jins:
Ko‘rsatilmagan
Staj:
6 oy 1 kun
Xabarlar:
6
Taqiq:

tortvolishga yordam berilaaaaaaaaaaaaaaaaaaa

Mavzu yaratish 15-Apr-2020 13:38 (14 kun o‘tgach)

Iqitibos

Profil ShX

MRLG

Jins:
Yigit
Staj:
2 yil 9 oy
Xabarlar:
643
Taqiq:

9089tortvolishga yordam berilaaaaaaaaaaaaaaaaaaa
Bu yerga yozgandan ko'ra Telegramdan reliz muallifidan 30 kundan beri nega tarqatmayotgani sababini so'rang: https://t.me/Lightroom6

Mavzu yaratish 15-Apr-2020 13:51 (13 daqiqa o‘tgach)

Iqitibos

Profil ShX
Xabarlarni ko‘rsatish:    

Hozirgi vaqt: 01-Iyun 20:50

Vaqtlar farqi: UTC + 5



Siz mavzu yaratishingiz mumkin emas
Siz xabarlarga javob qaytarishingiz mumkin emas
Siz o‘z xabarlaringizni tahrirlashingiz mumkin emas
Siz o‘z xabarlaringizni o‘chirishingiz mumkin emas
Siz so‘rovlarda ovoz berishingiz mumkin emas
Siz xabalarga fayllarni biriktirishingiz mumkin emas
Siz fayllarni ko‘chirishingiz mumkin emas