˂
˃
Tarqatmalar statistikasi
Ko‘chirmoqdaman: [ 8 ]
Ko‘chirib bo‘ldim: [ 26 ]
 
     
 
 

Ahmadullo ®

Jins:
Yigit
Staj:
8 oy 14 kun
Xabarlar:
73
Taqiq:

Ninzya 2 / Ниндзя 2 / Ninja: Shadow of a Tear
--Chiqqan yili: 2013
Davlat: AQSh,Tailand
Janr: Jangari, triller, jinoyat
Davomiyligi: 01:34:41
Tarjima: Professional (Dublyaj) O'zbek tilida (My5TV)
Tarjima 2: Professional (Bir ovozli) Rus tilida--Rejissyor: Isaac Florentine--Rollarda: Skott Edkins, Withaya Pansringarm, Kane Kosugi, Tim Mans, Charli Ryudpokanon, Ron Smurenburg, Mika Xijii, Xiong Sugata, Erika Nagamine, Patrik Teng, Mukesh Bxatt, Javed El Bernie.--Film Haqida: Keysi Bovman nihoyat barqaror hayotni boshladi. U Namiko bilan baxtli nikohda , Yaponiyada yashaydi va Koga Dojo dars beradi. Kunlarning birida, xotini uchun sovg'a olib kelgan Keysi bir-ikki qaroqchiga hujum qiladi. U bu narsaga ahamiyat bermaydi, hamma narsani oddiy o'g'rilik deb biladi. Ammo o'sha kuni Namiko shafqatsizlarcha o'ldirilganda, Keysi dunyosi qulab tushadi. Qayg'u va qasos olish uchun kuch topadi, Keysi uni o'g'irlamoqchi bo'lgan ikkita banditni ovlaydi, ammo ular unga xotinining o'ldirilishini hal qilish uchun kalitlarni berolmaydilar. Shuning uchun, Keysi Tailandga, yaqin do'sti Dojoga boradi. Uning ustidan qayg'u va g'azab hukmronlik qildi va u shogirdlari bilan xayrlashayotganda "parchalanib ketdi". Talabalardan biri Namiko singari o'ldirilganda, Keysi nihoyat xotinining qotilini ta'qib qilish va Birma o'rmonidagi sirni ochish uchun zarur bo'lgan dalillarni topadi.--Videoning sifati: BDRip
Video format: MKV-Video: Xvid 720x40 23.97fps 1 865 kb/s
Audio: AAC 44000Hz stereo O'zbek tili
Audio 2: AC3 48000Hz stereo 192kb/s Rus tili
Subtitrlar: ---

Media Info

General
Unique ID : 213798899734425121944400237461391553524 (0xA0D82B9946AD1E4585E94B15736C33F4)
Complete name : K:\MEDIA\HD MOVIES\TARJIMA HD x264 x265\2019-2020\Ninzya.2.2013.HDRip.by.MUHAMMADAHMAD.mkv
Format : Matroska
Format version : Version 4
File size : 1.49 GiB
Duration : 1 h 34 min
Overall bit rate : 2 255 kb/s
Encoded date : UTC 2020-02-17 10:24:28
Writing application : mkvmerge v21.0.0 ('Tardigrades Will Inherit The Earth') 64-bit
Writing library : libebml v1.3.5 + libmatroska v1.4.8
Video
ID : 1
Format : MPEG-4 Visual
Format profile : Advanced Simple@L5
Format settings : BVOP1
Format settings, BVOP : 1
Format settings, QPel : No
Format settings, GMC : No warppoints
Format settings, Matrix : Default (H.263)
Codec ID : V_MS/VFW/FOURCC / XVID
Codec ID/Hint : XviD
Duration : 1 h 34 min
Bit rate : 1 865 kb/s
Width : 720 pixels
Height : 400 pixels
Display aspect ratio : 16:9
Frame rate mode : Constant
Frame rate : 23.976 (23976/1000) FPS
Color space : YUV
Chroma subsampling : 4:2:0
Bit depth : 8 bits
Scan type : Progressive
Compression mode : Lossy
Bits/(Pixel*Frame) : 0.270
Stream size : 1.23 GiB (83%)
Writing library : XviD 1.2.1 (UTC 2008-12-04)
Default : Yes
Forced : No
Audio #1
ID : 2
Format : AAC LC
Format/Info : Advanced Audio Codec Low Complexity
Codec ID : A_AAC-2
Duration : 1 h 34 min
Bit rate : 192 kb/s
Channel(s) : 2 channels
Channel layout : L R
Sampling rate : 44.1 kHz
Frame rate : 43.066 FPS (1024 SPF)
Compression mode : Lossy
Stream size : 132 MiB (9%)
Title : uzb by MUHAMMADAHMAD
Language : Uzbek
Default : Yes
Forced : Yes
Audio #2
ID : 3
Format : AC-3
Format/Info : Audio Coding 3
Commercial name : Dolby Digital
Codec ID : A_AC3
Duration : 1 h 34 min
Bit rate mode : Constant
Bit rate : 192 kb/s
Channel(s) : 2 channels
Channel layout : L R
Sampling rate : 48.0 kHz
Frame rate : 31.250 FPS (1536 SPF)
Bit depth : 16 bits
Compression mode : Lossy
Stream size : 130 MiB (9%)
Title : rus
Service kind : Complete Main
Default : No
Forced : No
Text
ID : 4
Format : UTF-8
Codec ID : S_TEXT/UTF8
Codec ID/Info : UTF-8 Plain Text
Duration : 20 s 24 ms
Bit rate : 25 b/s
Count of elements : 2
Stream size : 64.0 Bytes (0%)
Title : reliz
Language : Russian
Default : Yes
Forced : Yes
LAVHALAR
Profil ShX

DIYOR 07 57

Jins:
Ko‘rsatilmagan
Staj:
5 oy 1 kun
Xabarlar:
2
Taqiq:

BALKI MAN TUSHUNMAYABMAN YOKI KUCHIRISHGA BERMAYABSIZLAR ILOJI BO'LSA YORDAM QILINGLAR OLDINDAN RAXMAT

Mavzu yaratish 19-Fev-2020 17:48 (2 kun 1 soat o‘tgach)

Iqitibos

Profil ShX

Ahmadullo ®

Jins:
Yigit
Staj:
8 oy 14 kun
Xabarlar:
73
Taqiq:

DIYOR 07 57, ayni vaqtda tarqatishdaman ) uzimi kompimda sekin ketyapti adsl,hozi boshqa yerdan tarqatyapman

Mavzu yaratish 19-Fev-2020 18:59 (1 soat 10 daqiqa o‘tgach)

Iqitibos

Profil ShX
Xabarlarni ko‘rsatish:    

Hozirgi vaqt: 07-Iyul 04:39

Vaqtlar farqi: UTC + 5



Siz mavzu yaratishingiz mumkin emas
Siz xabarlarga javob qaytarishingiz mumkin emas
Siz o‘z xabarlaringizni tahrirlashingiz mumkin emas
Siz o‘z xabarlaringizni o‘chirishingiz mumkin emas
Siz so‘rovlarda ovoz berishingiz mumkin emas
Siz xabalarga fayllarni biriktirishingiz mumkin emas
Siz fayllarni ko‘chirishingiz mumkin emas