˂
˃
Tarqatmalar statistikasi
Ko‘chirmoqdaman: [ 6 ]
Ko‘chirib bo‘ldim: [ 32 ]
 
     
 
 

Ahmadullo ®

Jins:
Yigit
Staj:
5 oy 14 kun
Xabarlar:
56
Taqiq:

Yangi jamoa / Новички / The Rookies
--Chiqqan yili: 2019
Davlat: Xitoy
Janr: Jangari, kulguli, jinoyat
Davomiyligi: 01:52:53
Tarjima: Professional (Dublyaj) O'zbek tilida (YoshlarTV)
Tarjima 2: Professional (Bir ovozli) Rus tilida
Tarjima 3: Professional (Original) Xitoy tilida--Rejissyor: Alan Yuen--Rollarda: Mila Jovovich, Xiao Zhan, Sandrine Pinna, Lu No, Xu Vey Chjou, Liu Me Tong, David McInnis, Lu No, Dann Chan, Keti Chow, Lam Suet, Darren Vang va boshqalar.--Film Haqida: Zhao Feng (Darren Vang) ekstremal sport ixlosmandi. Bir kuni u xalqaro jinoyatchilik sindikatiga oid noqonuniy bitimning guvohi bo'ladi. O'z xohishiga qarshi, u Interpol agenti (Mila Jovovich) bilan Budapeshtga hamroh bo'lishga majbur. U yerda ular xalqaro terrorchilik tashkilotiga duch keladigan yangi kelganlar guruhini yig'ishadi.--Videoning sifati: WEBRip
Video format: MKV-Video: MPEG4 H264 800x336 24fps 2 159 kb/s
Audio: AAC 44000Hz stereo O'zbek tili
Audio 2: AC3 48000Hz stereo 224kb/s Rus tili
Audio 3: AC3 48000Hz stereo 224kb/s Xitoy tili
Subtitrlar: Xitoy va Ingliz tilida (hardsab) --

Media Info

General
Unique ID : 11644053230468348368415487564268755000 (0x8C29025F302DE7F9332EC724A14D838)
Complete name : K:\MEDIA\HD MOVIES\TARJIMA HD x264 x265\2019-2020\Yangi.jamoa.2019.WEBRip.by.MUHAMMADAHMAD.mkv
Format : Matroska
Format version : Version 4
File size : 2.21 GiB
Duration : 1 h 52 min
Overall bit rate : 2 805 kb/s
Encoded date : UTC 2020-02-17 09:34:55
Writing application : mkvmerge v21.0.0 ('Tardigrades Will Inherit The Earth') 64-bit
Writing library : libebml v1.3.5 + libmatroska v1.4.8
Attachments : AA-BebasNeue.ttf / Arial Black (regular).ttf
Video
ID : 1
Format : AVC
Format/Info : Advanced Video Codec
Format profile : High@L4.1
Format settings : CABAC / 10 Ref Frames
Format settings, CABAC : Yes
Format settings, Reference fra : 10 frames
Codec ID : V_MPEG4/ISO/AVC
Duration : 1 h 52 min
Bit rate : 2 159 kb/s
Width : 800 pixels
Height : 336 pixels
Display aspect ratio : 2.40:1
Frame rate mode : Constant
Frame rate : 24.000 FPS
Color space : YUV
Chroma subsampling : 4:2:0
Bit depth : 8 bits
Scan type : Progressive
Bits/(Pixel*Frame) : 0.335
Stream size : 1.70 GiB (77%)
Writing library : x264 core 148 r2638 7599210
Encoding settings : cabac=1 / ref=10 / deblock=1:-2:-1 / analyse=0x3:0x133 / me=umh / subme=10 / psy=1 / psy_rd=1.00:0.00 / mixed_ref=1 / me_range=24 / chroma_me=1 / trellis=2 / 8x8dct=1 / cqm=0 / deadzone=21,11 / fast_pskip=0 / chroma_qp_offset=-2 / threads=10 / lookahead_threads=2 / sliced_threads=0 / nr=0 / decimate=0 / interlaced=0 / bluray_compat=0 / constrained_intra=0 / bframes=10 / b_pyramid=2 / b_adapt=2 / b_bias=0 / direct=3 / weightb=1 / open_gop=1 / weightp=2 / keyint=240 / keyint_min=24 / scenecut=40 / intra_refresh=0 / rc_lookahead=60 / rc=2pass / mbtree=0 / bitrate=2159 / ratetol=1.0 / qcomp=0.70 / qpmin=10 / qpmax=51 / qpstep=4 / cplxblur=20.0 / qblur=0.5 / vbv_maxrate=62500 / vbv_bufsize=78125 / nal_hrd=none / filler=0 / ip_ratio=1.40 / pb_ratio=1.30 / aq=1:1.00
Language : English
Default : Yes
Forced : No
Color range : Limited
Matrix coefficients : BT.709
Audio #1
ID : 2
Format : AAC LC
Format/Info : Advanced Audio Codec Low Complexity
Codec ID : A_AAC-2
Duration : 1 h 52 min
Bit rate : 192 kb/s
Channel(s) : 2 channels
Channel layout : L R
Sampling rate : 44.1 kHz
Frame rate : 43.066 FPS (1024 SPF)
Compression mode : Lossy
Stream size : 158 MiB (7%)
Title : uzb by MUAH
Language : Russian
Default : Yes
Forced : Yes
Audio #2
ID : 3
Format : AC-3
Format/Info : Audio Coding 3
Commercial name : Dolby Digital
Codec ID : A_AC3
Duration : 1 h 52 min
Bit rate mode : Constant
Bit rate : 224 kb/s
Channel(s) : 2 channels
Channel layout : L R
Sampling rate : 48.0 kHz
Frame rate : 31.250 FPS (1536 SPF)
Bit depth : 16 bits
Compression mode : Lossy
Stream size : 181 MiB (8%)
Title : rus
Language : Russian
Service kind : Complete Main
Default : No
Forced : No
Audio #3
ID : 4
Format : AC-3
Format/Info : Audio Coding 3
Commercial name : Dolby Digital
Codec ID : A_AC3
Duration : 1 h 52 min
Bit rate mode : Constant
Bit rate : 224 kb/s
Channel(s) : 2 channels
Channel layout : L R
Sampling rate : 48.0 kHz
Frame rate : 31.250 FPS (1536 SPF)
Bit depth : 16 bits
Compression mode : Lossy
Stream size : 181 MiB (8%)
Title : chi
Language : Chinese
Service kind : Complete Main
Default : No
Forced : No
Text #1
ID : 5
Format : UTF-8
Codec ID : S_TEXT/UTF8
Codec ID/Info : UTF-8 Plain Text
Duration : 20 s 24 ms
Bit rate : 25 b/s
Count of elements : 2
Stream size : 64.0 Bytes (0%)
Title : reliz
Language : Russian
Default : Yes
Forced : Yes
Text #2
ID : 6
Format : UTF-8
Codec ID : S_TEXT/UTF8
Codec ID/Info : UTF-8 Plain Text
Duration : 10 s 0 ms
Bit rate : 36 b/s
Count of elements : 1
Stream size : 45.0 Bytes (0%)
Title : reliz
Language : Russian
Default : No
Forced : Yes
Text #3
ID : 7
Format : ASS
Codec ID : S_TEXT/ASS
Codec ID/Info : Advanced Sub Station Alpha
Duration : 1 h 41 min
Bit rate : 3 b/s
Count of elements : 32
Compression mode : Lossless
Stream size : 2.90 KiB (0%)
Default : No
Forced : No
LAVHALAR
Profil ShX
Xabarlarni ko‘rsatish:    

Hozirgi vaqt: 07-Apr 03:29

Vaqtlar farqi: UTC + 5



Siz mavzu yaratishingiz mumkin emas
Siz xabarlarga javob qaytarishingiz mumkin emas
Siz o‘z xabarlaringizni tahrirlashingiz mumkin emas
Siz o‘z xabarlaringizni o‘chirishingiz mumkin emas
Siz so‘rovlarda ovoz berishingiz mumkin emas
Siz xabalarga fayllarni biriktirishingiz mumkin emas
Siz fayllarni ko‘chirishingiz mumkin emas