˂
˃
Tarqatmalar statistikasi
Ko‘chiraman: [ 1 ]
Ko‘chirmoqdaman: [ 14 ]
Ko‘chirib bo‘ldim: [ 43 ]
 
     
 
 

Ahmadullo ®

Jins:
Yigit
Staj:
7 oy 9 kun
Xabarlar:
72
Taqiq:

Jumanji: Keyingi bosqich / Джуманджи: Новый уровень / Jumanji: The Next Level
--Chiqqan yili: 2019
Davlat: AQSh
Janr: Fantastika, jangari, kulguli, sarguzasht
Davomiyligi: 02:03:11
Tarjima: Professional (Dublyaj) O'zbek tilida (SevimliTV)
Tarjima 2: Professional (Dublyaj) Rus tilida (onlayn kinoteatrdan)--Rejissyor: Jeyk Kasdan--Rollarda: Dvayn Jonson, Jek Blek, Kevin Xart, Karen Gillan, Nik Jonas, Aquafina, Riz Derbi, Denni DeVito, Denni Glover, Morgan Tyorner--Film Haqida: Do'stlardan birini qutqarish uchun, qolganlari o'yinga qaytishlari kerak. Ajablanarlisi shundaki, Jumanji qoidalari o'zgardi va ishlar yomonlashdi. Omon qolish uchun do'stlar o'yinning eng noma'lum va sirli burchaklari - qurg'oqchil cho'ldan qorli tog'largacha sayohat qilishlari kerak.--Videoning sifati: WEBRip
Video format: MKV-Video: Xvid 720x304 23.96fps 1 491 kb/s
Audio: AAC 44000Hz stereo O'zbek tili
Audio 2: AC3 48000Hz stereo 192kb/s Rus tili
Subtitrlar: - --

Media Info

General
Unique ID : 292987945633516235398595187563963204817 (0xDC6B6D002E4921309C80E8F7A319C4D1)
Complete name : K:\MEDIA\HD MOVIES\TARJIMA HD x264 x265\2019-2020\Jumanji.2.Keyingi.bosqich.2019.WEBRip.mkv
Format : Matroska
Format version : Version 4
File size : 1.62 GiB
Duration : 2 h 3 min
Overall bit rate : 1 881 kb/s
Encoded date : UTC 2020-02-16 05:27:18
Writing application : mkvmerge v21.0.0 ('Tardigrades Will Inherit The Earth') 64-bit
Writing library : libebml v1.3.5 + libmatroska v1.4.8
Video
ID : 1
Format : MPEG-4 Visual
Format profile : Advanced Simple@L5
Format settings : BVOP1 / Custom Matrix
Format settings, BVOP : 1
Format settings, QPel : No
Format settings, GMC : No warppoints
Format settings, Matrix : Custom
Codec ID : V_MS/VFW/FOURCC / XVID
Codec ID/Hint : XviD
Duration : 2 h 3 min
Bit rate : 1 491 kb/s
Width : 720 pixels
Height : 304 pixels
Display aspect ratio : 2.35:1
Frame rate mode : Constant
Frame rate : 23.976 (23976/1000) FPS
Color space : YUV
Chroma subsampling : 4:2:0
Bit depth : 8 bits
Scan type : Progressive
Compression mode : Lossy
Bits/(Pixel*Frame) : 0.284
Stream size : 1.28 GiB (79%)
Writing library : XviD 67
Default : Yes
Forced : No
Audio #1
ID : 2
Format : AAC LC
Format/Info : Advanced Audio Codec Low Complexity
Codec ID : A_AAC-2
Duration : 2 h 3 min
Bit rate : 192 kb/s
Channel(s) : 2 channels
Channel layout : L R
Sampling rate : 44.1 kHz
Frame rate : 43.066 FPS (1024 SPF)
Compression mode : Lossy
Stream size : 172 MiB (10%)
Title : uzb by MUAH
Language : Uzbek
Default : Yes
Forced : Yes
Audio #2
ID : 3
Format : AC-3
Format/Info : Audio Coding 3
Commercial name : Dolby Digital
Codec ID : A_AC3
Duration : 2 h 3 min
Bit rate mode : Constant
Bit rate : 192 kb/s
Channel(s) : 2 channels
Channel layout : L R
Sampling rate : 48.0 kHz
Frame rate : 31.250 FPS (1536 SPF)
Bit depth : 16 bits
Compression mode : Lossy
Stream size : 169 MiB (10%)
Title : rus
Service kind : Complete Main
Default : No
Forced : No
Text
ID : 4
Format : UTF-8
Codec ID : S_TEXT/UTF8
Codec ID/Info : UTF-8 Plain Text
Duration : 10 s 0 ms
Bit rate : 36 b/s
Count of elements : 1
Stream size : 45.0 Bytes (0%)
Title : reliz
Language : Uzbek
Default : Yes
Forced : Yes
LAVHALAR
Profil ShX

AxeL

Jins:
Yigit
Staj:
2 yil 2 oy
Xabarlar:
773

Qayerdan: Gronland, Norway

Taqiq:

barakalla gap bo'lishi mumkin emas, charchamang, userlardan iltimos qilgan bo'lardik, HD relizerlarni qo'llab turishlarini, axir ular sizlar uchun ishlashmoqda, treker uchun ishlashmoqda...

Mavzu yaratish 17-Fev-2020 10:28 (23 soat o‘tgach)

Iqitibos

Profil ShX

Ahmadullo ®

Jins:
Yigit
Staj:
7 oy 9 kun
Xabarlar:
72
Taqiq:

AxeL, rahmat)

Mavzu yaratish 17-Fev-2020 15:23 (4 soat o‘tgach)

Iqitibos

Profil ShX
Xabarlarni ko‘rsatish:    

Hozirgi vaqt: 01-Iyun 20:45

Vaqtlar farqi: UTC + 5



Siz mavzu yaratishingiz mumkin emas
Siz xabarlarga javob qaytarishingiz mumkin emas
Siz o‘z xabarlaringizni tahrirlashingiz mumkin emas
Siz o‘z xabarlaringizni o‘chirishingiz mumkin emas
Siz so‘rovlarda ovoz berishingiz mumkin emas
Siz xabalarga fayllarni biriktirishingiz mumkin emas
Siz fayllarni ko‘chirishingiz mumkin emas