˂
˃
Tarqatmalar statistikasi
Ko‘chirmoqdaman: [ 2 ]
Ko‘chirib bo‘ldim: [ 31 ]
 
     
 
 

Ahmadullo ®

Jins:
Yigit
Staj:
8 oy 22 kun
Xabarlar:
73
Taqiq:

Milan missiyasi / Миссия в Милане / Mission Milano
--Chiqqan yili: 2016
Davlat: Xitoy
Janr: Jangari, komediya
Davomiyligi: 01:42:53
Tarjima: Professional (Dublyaj) O'zbek tilida (KinoteatrTV)
Tarjima 2: Professional (Original) Xitoy tilida--Rejissyor: Von Sin--Rollarda: Andy Lau, Xiao Ming Xuan, Von Cho-lam, Shen Teng, Vu Yin, Nana Ou-yang, Sammy Cheng, Petrina Fun--Film Haqida: Boy va gullab-yashnagan xitoylik tadbirkor Xo insoniyatni ochlikdan saqlaydigan bebaho kashfiyotni himoya qilish uchun Interpol bilan ishlashga majbur. San'at odamini tasodifan vafot etishiga yo'l qo'ymaslik uchun unga tajribali Gonkong maxsus agenti Bo tayinlangan.--Videoning sifati: BDRip 720p
Video format: MKV-Video: MPEG4 Video (H264) 1280x536 24fps 1 023 kb/s
Audio: AAC 44100Hz stereo O'zbek tili
Audio 2: AAC 48000Hz stereo Xitoy tili
---

Media Info

General
Unique ID : 291423201015157312053152046932262781846 (0xDB3E11227BC9F121C2BB0529AA6A0396)
Complete name : J:\Milan.missiyasi.2016.BDrip.720p.mkv
Format : Matroska
Format version : Version 4
File size : 945 MiB
Duration : 1 h 42 min
Overall bit rate : 1 284 kb/s
Encoded date : UTC 2020-02-12 05:01:30
Writing application : mkvmerge v21.0.0 ('Tardigrades Will Inherit The Earth') 64-bit
Writing library : libebml v1.3.5 + libmatroska v1.4.8
Video
ID : 1
Format : AVC
Format/Info : Advanced Video Codec
Format profile : High@L4.1
Format settings : CABAC / 5 Ref Frames
Format settings, CABAC : Yes
Format settings, Reference fra : 5 frames
Codec ID : V_MPEG4/ISO/AVC
Duration : 1 h 42 min
Bit rate : 1 023 kb/s
Width : 1 280 pixels
Height : 536 pixels
Display aspect ratio : 2.40:1
Frame rate mode : Constant
Frame rate : 24.000 FPS
Color space : YUV
Chroma subsampling : 4:2:0
Bit depth : 8 bits
Scan type : Progressive
Bits/(Pixel*Frame) : 0.062
Stream size : 752 MiB (80%)
Writing library : x264 core 148 r2638 7599210
Encoding settings : cabac=1 / ref=5 / deblock=1:-1:-1 / analyse=0x3:0x113 / me=umh / subme=9 / psy=1 / psy_rd=0.00:0.00 / mixed_ref=1 / me_range=32 / chroma_me=1 / trellis=1 / 8x8dct=1 / cqm=0 / deadzone=21,11 / fast_pskip=0 / chroma_qp_offset=0 / threads=12 / lookahead_threads=1 / sliced_threads=0 / nr=0 / decimate=1 / interlaced=0 / bluray_compat=0 / constrained_intra=0 / bframes=3 / b_pyramid=2 / b_adapt=2 / b_bias=0 / direct=3 / weightb=1 / open_gop=0 / weightp=2 / keyint=240 / keyint_min=24 / scenecut=40 / intra_refresh=0 / rc_lookahead=40 / rc=2pass / mbtree=1 / bitrate=1023 / ratetol=1.0 / qcomp=0.60 / qpmin=0 / qpmax=69 / qpstep=4 / cplxblur=20.0 / qblur=0.5 / vbv_maxrate=62500 / vbv_bufsize=78125 / nal_hrd=none / filler=0 / ip_ratio=1.40 / aq=1:1.00
Default : Yes
Forced : No
Audio #1
ID : 2
Format : AAC LC
Format/Info : Advanced Audio Codec Low Complexity
Codec ID : A_AAC-2
Duration : 1 h 42 min
Bit rate : 192 kb/s
Channel(s) : 2 channels
Channel layout : L R
Sampling rate : 44.1 kHz
Frame rate : 43.066 FPS (1024 SPF)
Compression mode : Lossy
Stream size : 144 MiB (15%)
Title : uzb by MuhammadAhmad
Language : Uzbek
Default : Yes
Forced : Yes
Audio #2
ID : 3
Format : AAC LC SBR
Format/Info : Advanced Audio Codec Low Complexity with Spectral Band Replication
Commercial name : HE-AAC
Format settings : Explicit
Codec ID : A_AAC-2
Duration : 1 h 42 min
Bit rate : 63.8 kb/s
Channel(s) : 2 channels
Channel layout : L R
Sampling rate : 48.0 kHz
Frame rate : 23.438 FPS (2048 SPF)
Compression mode : Lossy
Delay relative to video : 31 ms
Stream size : 47.0 MiB (5%)
Title : original
Default : No
Forced : No
Text
ID : 4
Format : UTF-8
Codec ID : S_TEXT/UTF8
Codec ID/Info : UTF-8 Plain Text
Duration : 10 s 0 ms
Bit rate : 36 b/s
Count of elements : 1
Stream size : 45.0 Bytes (0%)
Title : reliz
Default : Yes
Forced : Yes
LAVHALAR
Profil ShX
Xabarlarni ko‘rsatish:    

Hozirgi vaqt: 15-Iyul 04:16

Vaqtlar farqi: UTC + 5



Siz mavzu yaratishingiz mumkin emas
Siz xabarlarga javob qaytarishingiz mumkin emas
Siz o‘z xabarlaringizni tahrirlashingiz mumkin emas
Siz o‘z xabarlaringizni o‘chirishingiz mumkin emas
Siz so‘rovlarda ovoz berishingiz mumkin emas
Siz xabalarga fayllarni biriktirishingiz mumkin emas
Siz fayllarni ko‘chirishingiz mumkin emas