˂
˃
Tarqatmalar statistikasi
Ko‘chirmoqdaman: [ 4 ]
Ko‘chirib bo‘ldim: [ 21 ]
 
     
 
 

Ahmadullo ®

Jins:
Yigit
Staj:
7 oy 11 kun
Xabarlar:
72
Taqiq:

Omadli omadsizlar / Сумасшествие / Pagalpanti
--Chiqqan yili: 2019
Davlat: Hindiston
Janr: Kulguli, jangari
Davomiyligi: 02:28:36
Tarjima: Professional O'zbek tilida MY5TV
Tarjima 2: Professional (Original) Hind tilida--Rejissyor: Anis Bazmi--Rollarda: Anil Kapur, Jon Avraam, Ileana, Arshad Varsi, Pulkit Samrat, Urvasi Rutela, Kriti Xarband, Saurabh Shukla, Inaamulhak, Zokir Xusseyn--Film Haqida: Oqibati haqida o'ylamasdan, osonlikcha va shunchaki pul olishni kim istamaydi? Ha, hamma ehtiyotkorlik choralarini unutib va o'ylamasdan harakat qilsa, hamma katta muammolarga duch kelishi mumkin. Ularning tajribalarida buni asosiy qahramonlar ham ko'rishmoqda, ular kutilmaganda o'z hayotlarini tubdan o'zgartirish vaqti keldi deb qaror qilishdi ...--Videoning sifati: BDRip 1080p
Video format: MKV-Video: MPEG4 (H264) 1920x800 25fps 2 000 kb/s
Audio: AAC 44100Hz stereo O'zbek tili
Audio 2: AAC 44100Hz stereo Hind tili
Subtitrlar: Ingliz tilida--

Media Info

General
Unique ID : 166563237826310173151521941869281889269 (0x7D4EE9A9175EE0FD31C30B8D540F4BF5)
Complete name : K:\MEDIA\HD MOVIES\TARJIMA HD x264 x265\2019-2020\Omadli.omadsizlar.2019.Uzb.Hind.1080p.by.MUAH.mkv
Format : Matroska
Format version : Version 4
File size : 2.36 GiB
Duration : 2 h 28 min
Overall bit rate : 2 278 kb/s
Encoded date : UTC 2020-02-11 06:16:05
Writing application : mkvmerge v21.0.0 ('Tardigrades Will Inherit The Earth') 64-bit
Writing library : libebml v1.3.5 + libmatroska v1.4.8
Video
ID : 1
Format : AVC
Format/Info : Advanced Video Codec
Format profile : High@L4
Format settings : CABAC / 4 Ref Frames
Format settings, CABAC : Yes
Format settings, Reference fra : 4 frames
Codec ID : V_MPEG4/ISO/AVC
Duration : 2 h 28 min
Bit rate : 2 000 kb/s
Width : 1 920 pixels
Height : 800 pixels
Display aspect ratio : 2.40:1
Frame rate mode : Constant
Frame rate : 25.000 FPS
Color space : YUV
Chroma subsampling : 4:2:0
Bit depth : 8 bits
Scan type : Progressive
Bits/(Pixel*Frame) : 0.052
Stream size : 2.08 GiB (88%)
Writing library : x264 core 142 r2479 dd79a61
Encoding settings : cabac=1 / ref=4 / deblock=1:0:0 / analyse=0x3:0x113 / me=umh / subme=9 / psy=1 / psy_rd=1.00:0.15 / mixed_ref=1 / me_range=32 / chroma_me=1 / trellis=1 / 8x8dct=1 / cqm=0 / deadzone=21,11 / fast_pskip=1 / chroma_qp_offset=-3 / threads=48 / lookahead_threads=4 / sliced_threads=0 / nr=0 / decimate=1 / interlaced=0 / bluray_compat=0 / constrained_intra=0 / bframes=3 / b_pyramid=2 / b_adapt=2 / b_bias=0 / direct=1 / weightb=1 / open_gop=0 / weightp=2 / keyint=250 / keyint_min=25 / scenecut=40 / intra_refresh=0 / rc_lookahead=40 / rc=2pass / mbtree=1 / bitrate=2000 / ratetol=1.0 / qcomp=0.60 / qpmin=0 / qpmax=69 / qpstep=4 / cplxblur=20.0 / qblur=0.5 / ip_ratio=1.40 / aq=1:1.00
Default : Yes
Forced : No
Color range : Limited
Color primaries : BT.709
Transfer characteristics : BT.709
Matrix coefficients : BT.709
Audio #1
ID : 2
Format : AAC LC
Format/Info : Advanced Audio Codec Low Complexity
Codec ID : A_AAC-2
Duration : 2 h 28 min
Bit rate : 192 kb/s
Channel(s) : 2 channels
Channel layout : L R
Sampling rate : 44.1 kHz
Frame rate : 43.066 FPS (1024 SPF)
Compression mode : Lossy
Delay relative to video : -80 ms
Stream size : 208 MiB (9%)
Title : uzb by MuhammadAhmad
Language : Uzbek
Default : Yes
Forced : Yes
Audio #2
ID : 3
Format : AAC LC
Format/Info : Advanced Audio Codec Low Complexity
Codec ID : A_AAC-2
Duration : 2 h 28 min
Bit rate : 80.0 kb/s
Channel(s) : 2 channels
Channel layout : L R
Sampling rate : 44.1 kHz
Frame rate : 43.066 FPS (1024 SPF)
Compression mode : Lossy
Delay relative to video : -80 ms
Stream size : 85.0 MiB (4%)
Default : No
Forced : No
Text #1
ID : 4
Format : UTF-8
Codec ID : S_TEXT/UTF8
Codec ID/Info : UTF-8 Plain Text
Duration : 10 s 0 ms
Bit rate : 36 b/s
Count of elements : 1
Stream size : 45.0 Bytes (0%)
Title : reliz
Language : Russian
Default : Yes
Forced : Yes
Text #2
ID : 5
Format : UTF-8
Codec ID : S_TEXT/UTF8
Codec ID/Info : UTF-8 Plain Text
Duration : 2 h 26 min
Bit rate : 71 b/s
Count of elements : 2647
Stream size : 76.6 KiB (0%)
Title : english
Default : No
Forced : No
LAVHALAR
Profil ShX
Xabarlarni ko‘rsatish:    

Hozirgi vaqt: 03-Iyun 20:26

Vaqtlar farqi: UTC + 5



Siz mavzu yaratishingiz mumkin emas
Siz xabarlarga javob qaytarishingiz mumkin emas
Siz o‘z xabarlaringizni tahrirlashingiz mumkin emas
Siz o‘z xabarlaringizni o‘chirishingiz mumkin emas
Siz so‘rovlarda ovoz berishingiz mumkin emas
Siz xabalarga fayllarni biriktirishingiz mumkin emas
Siz fayllarni ko‘chirishingiz mumkin emas