˂
˃
Tarqatmalar statistikasi
Ko‘chiraman: [ 1 ]
Ko‘chirmoqdaman: [ 2 ]
Ko‘chirib bo‘ldim: [ 39 ]
 
     
 
 

Ahmadullo ®

Jins:
Yigit
Staj:
8 oy 14 kun
Xabarlar:
73
Taqiq:

Charli farishtalari / Ангелы Чарли / Charlie's Angels
--Chiqqan yili: 2019
Davlat: AQSh
Janr: Jangari, komediya, sarguzasht
Davomiyligi: 01:58:29
Tarjima: Professional (Dublyaj) O'zbek tilida (MilliyTV)
Tarjima 2: Professional (Dublyaj) Rus tilida--Rejissyor: Elizabeth Banks--Rollarda: Kristen Styuart, Naomi Skot, Ella Balinska, Sam Klaflin, Nuh Centineo, Elizabeth Banks, Jimon Xonsu, Patrik Styuart, Luis Gerardo Mendes, Jonatan Taker, Nat Fakson, Kris Pang, Devid Shutter, Xanna Xektra, Jeyn Chirva--Film Haqida: Sirli Charli boshchiligidagi Townsend xususiy detektiv agentligi butun dunyo bo'ylab o'z vakolatxonalarini ochmoqda va hozirda dunyoning turli burchaklarida Bosley boshchiligidagi o'ta professional farishtalar guruhlari o'z mijozlariga tinchlik va xavfsizlikni ta'minlamoqda.--Videoning sifati: WEB-DLRip
Video format: MKV-Video: Xvid 720x304 23.96fps 1 377 kb/s
Audio: AAC 44000Hz stereo O'zbek tili
Audio 2: AC3 48000Hz stereo 384kb/s Rus tili
Subtitrlar: Rus va ingliz tilida --

Media Info

General
Unique ID : 72529816444632659010092673174763223893 (0x3690BC0A7F15E71A1FEB404165C03B55)
Complete name : J:\Charli.farishtalari.2019.WEB-DLRip.mkv
Format : Matroska
Format version : Version 4
File size : 1.62 GiB
Duration : 1 h 58 min
Overall bit rate : 1 959 kb/s
Encoded date : UTC 2020-02-14 07:21:27
Writing application : mkvmerge v21.0.0 ('Tardigrades Will Inherit The Earth') 64-bit
Writing library : libebml v1.3.5 + libmatroska v1.4.8
Video
ID : 1
Format : MPEG-4 Visual
Format profile : Advanced Simple@L5
Format settings : BVOP1 / Custom Matrix
Format settings, BVOP : 1
Format settings, QPel : No
Format settings, GMC : No warppoints
Format settings, Matrix : Custom
Codec ID : V_MS/VFW/FOURCC / XVID
Codec ID/Hint : XviD
Duration : 1 h 58 min
Bit rate : 1 377 kb/s
Width : 720 pixels
Height : 304 pixels
Display aspect ratio : 2.35:1
Frame rate mode : Constant
Frame rate : 23.976 (23976/1000) FPS
Color space : YUV
Chroma subsampling : 4:2:0
Bit depth : 8 bits
Scan type : Progressive
Compression mode : Lossy
Bits/(Pixel*Frame) : 0.262
Stream size : 1.14 GiB (70%)
Writing library : XviD 73
Default : Yes
Forced : No
Audio #1
ID : 2
Format : AAC LC
Format/Info : Advanced Audio Codec Low Complexity
Codec ID : A_AAC-2
Duration : 1 h 58 min
Bit rate : 192 kb/s
Channel(s) : 2 channels
Channel layout : L R
Sampling rate : 44.1 kHz
Frame rate : 43.066 FPS (1024 SPF)
Compression mode : Lossy
Stream size : 165 MiB (10%)
Title : uzb by MUHAMMADAHMAD
Language : Russian
Default : Yes
Forced : Yes
Audio #2
ID : 3
Format : AC-3
Format/Info : Audio Coding 3
Commercial name : Dolby Digital
Codec ID : A_AC3
Duration : 1 h 58 min
Bit rate mode : Constant
Bit rate : 384 kb/s
Channel(s) : 6 channels
Channel layout : L R C LFE Ls Rs
Sampling rate : 48.0 kHz
Frame rate : 31.250 FPS (1536 SPF)
Bit depth : 16 bits
Compression mode : Lossy
Stream size : 325 MiB (20%)
Service kind : Complete Main
Default : No
Forced : No
Text #1
ID : 4
Format : UTF-8
Codec ID : S_TEXT/UTF8
Codec ID/Info : UTF-8 Plain Text
Duration : 10 s 0 ms
Bit rate : 36 b/s
Count of elements : 1
Stream size : 45.0 Bytes (0%)
Title : uzb by MUHAMMADAHMAD
Language : Russian
Default : Yes
Forced : Yes
Text #2
ID : 5
Format : UTF-8
Codec ID : S_TEXT/UTF8
Codec ID/Info : UTF-8 Plain Text
Duration : 1 h 52 min
Bit rate : 62 b/s
Count of elements : 1743
Stream size : 51.4 KiB (0%)
Title : eng
Default : No
Forced : No
Text #3
ID : 6
Format : UTF-8
Codec ID : S_TEXT/UTF8
Codec ID/Info : UTF-8 Plain Text
Duration : 1 h 57 min
Bit rate : 84 b/s
Count of elements : 1613
Stream size : 73.2 KiB (0%)
Title : rus
Default : No
Forced : No
LAVHALAR
Profil ShX
Xabarlarni ko‘rsatish:    

Hozirgi vaqt: 07-Iyul 05:21

Vaqtlar farqi: UTC + 5



Siz mavzu yaratishingiz mumkin emas
Siz xabarlarga javob qaytarishingiz mumkin emas
Siz o‘z xabarlaringizni tahrirlashingiz mumkin emas
Siz o‘z xabarlaringizni o‘chirishingiz mumkin emas
Siz so‘rovlarda ovoz berishingiz mumkin emas
Siz xabalarga fayllarni biriktirishingiz mumkin emas
Siz fayllarni ko‘chirishingiz mumkin emas