˂
˃
Tarqatmalar statistikasi
Ko‘chiraman: [ 1 ]
Ko‘chirmoqdaman: [ 6 ]
Ko‘chirib bo‘ldim: [ 42 ]
 
     
 
 

Ahmadullo ®

Jins:
Yigit
Staj:
8 oy 14 kun
Xabarlar:
73
Taqiq:

Ip Men 4 / Ип Ман 4 / Yip Man 4
--Chiqqan yili: 2019
Davlat: Xitoy, Gongkong
Janr: Jangari, biografiya
Davomiyligi: 01:47:00
Tarjima: Professional (Dublyaj) O'zbek tilida (My5TV)
Tarjima 2: Professional (Original) Xitoy tilida--Rejissyor: Uilson Yip--Rollarda: Donni Yen, Danny Chan, Wu Yue, Skot Adkins, Vaness Vu, Jim Liu, Kent Cheng, Per Ngo, Adrian Uiler, Kris Kollinz--Film Haqida: Amerika, 1960 yillar. Ip Men Sietlga keladi, u yerda uning talabalaridan biri Ving Chun maktabini ochishga qaror qiladi.--Videoning sifati: HDRip
Video format: MKV-Video: MPEG4 H264 1280x576 25fps 942 kb/s
Audio: AAC 44000Hz stereo O'zbek tili
Audio 2: AAC 48000Hz stereo Xitoy tili
Subtitrlar: Xitoy tilida --

Media Info

General
Unique ID : 161239864321984220813960121773845715103 (0x794DAB153A61FAE72A5314004145189F)
Complete name : K:\MEDIA\HD MOVIES\TARJIMA HD x264 x265\2019-2020\Ip.Men.4.2019.HDRip.MuhammadAhmad.mkv
Format : Matroska
Format version : Version 4
File size : 945 MiB
Duration : 1 h 46 min
Overall bit rate : 1 235 kb/s
Movie name : GalaxyRG - Ip.Man.4.2019.HC.720p.HDRip.800MB.x264-GalaxyRG
Encoded date : UTC 2020-02-13 04:21:27
Writing application : mkvmerge v21.0.0 ('Tardigrades Will Inherit The Earth') 64-bit
Writing library : libebml v1.3.5 + libmatroska v1.4.8 / Lavf58.20.100
Comment : GalaxyRG - Ip.Man.4.2019.HC.720p.HDRip.800MB.x264-GalaxyRG
Video
ID : 1
Format : AVC
Format/Info : Advanced Video Codec
Format profile : High@L3.1
Format settings : CABAC / 4 Ref Frames
Format settings, CABAC : Yes
Format settings, Reference fra : 4 frames
Codec ID : V_MPEG4/ISO/AVC
Duration : 1 h 46 min
Bit rate : 942 kb/s
Width : 1 280 pixels
Height : 576 pixels
Display aspect ratio : 2.222
Frame rate mode : Variable
Frame rate : 25.000 FPS
Color space : YUV
Chroma subsampling : 4:2:0
Bit depth : 8 bits
Scan type : Progressive
Bits/(Pixel*Frame) : 0.051
Stream size : 721 MiB (76%)
Title : GalaxyRG - Ip.Man.4.2019.HC.720p.HDRip.800MB.x264-GalaxyRG
Writing library : x264 core 157
Encoding settings : cabac=1 / ref=2 / deblock=1:0:0 / analyse=0x3:0x113 / me=hex / subme=4 / psy=1 / psy_rd=1.00:0.00 / mixed_ref=0 / me_range=16 / chroma_me=1 / trellis=1 / 8x8dct=1 / cqm=0 / deadzone=21,11 / fast_pskip=1 / chroma_qp_offset=0 / threads=12 / lookahead_threads=3 / sliced_threads=0 / nr=0 / decimate=1 / interlaced=0 / bluray_compat=0 / constrained_intra=0 / bframes=3 / b_pyramid=2 / b_adapt=1 / b_bias=0 / direct=1 / weightb=1 / open_gop=0 / weightp=1 / keyint=250 / keyint_min=25 / scenecut=40 / intra_refresh=0 / rc_lookahead=20 / rc=2pass / mbtree=1 / bitrate=942 / ratetol=1.0 / qcomp=0.60 / qpmin=0 / qpmax=69 / qpstep=4 / cplxblur=20.0 / qblur=0.5 / ip_ratio=1.40 / aq=1:1.00
Default : Yes
Forced : No
Audio #1
ID : 2
Format : AAC LC
Format/Info : Advanced Audio Codec Low Complexity
Codec ID : A_AAC-2
Duration : 1 h 46 min
Bit rate : 192 kb/s
Channel(s) : 2 channels
Channel layout : L R
Sampling rate : 44.1 kHz
Frame rate : 43.066 FPS (1024 SPF)
Compression mode : Lossy
Stream size : 149 MiB (16%)
Title : uzb by MUHAMMADAHMAD
Language : Uzbek
Default : Yes
Forced : Yes
Audio #2
ID : 3
Format : AAC LC
Format/Info : Advanced Audio Codec Low Complexity
Codec ID : A_AAC-2
Duration : 1 h 46 min
Bit rate : 96.0 kb/s
Channel(s) : 2 channels
Channel layout : L R
Sampling rate : 48.0 kHz
Frame rate : 46.875 FPS (1024 SPF)
Compression mode : Lossy
Stream size : 73.5 MiB (8%)
Title : original chinese
Writing library : Lavc58.35.100 aac
Default : No
Forced : No
Text #1
ID : 4
Format : UTF-8
Codec ID : S_TEXT/UTF8
Codec ID/Info : UTF-8 Plain Text
Duration : 10 s 0 ms
Bit rate : 36 b/s
Count of elements : 1
Stream size : 45.0 Bytes (0%)
Title : uzb MUHAMMADAHMAD
Language : Uzbek
Default : Yes
Forced : Yes
Text #2
ID : 5
Format : UTF-8
Codec ID : S_TEXT/UTF8
Codec ID/Info : UTF-8 Plain Text
Duration : 10 s 0 ms
Bit rate : 66 b/s
Count of elements : 2
Stream size : 83.0 Bytes (0%)
Default : No
Forced : No
LAVHALAR
Profil ShX

Gr@nd

Jins:
Yigit
Staj:
2 yil 9 oy
Xabarlar:
178

Qayerdan: Jizzax Forish

Taqiq:

Ahmadullo, Sizning mexnatingizni judaxam xurmat qilaman va shilapamni ychaman ishingizga rivoj

Mavzu yaratish 13-Fev-2020 10:21 (38 daqiqa o‘tgach)

Iqitibos

Profil ShX

Ahmadullo ®

Jins:
Yigit
Staj:
8 oy 14 kun
Xabarlar:
73
Taqiq:

Gr@nd, rahmat aka,joningiz sog busin

Mavzu yaratish 13-Fev-2020 10:58 (37 daqiqa o‘tgach)

Iqitibos

Profil ShX

Gr@nd

Jins:
Yigit
Staj:
2 yil 9 oy
Xabarlar:
178

Qayerdan: Jizzax Forish

Taqiq:

Ahmadullo, Sizga bir taklif va iltimos bor menda umuman vaqt bo'lmayapti siz PARAZITLAR kino'ni tarjima qilsangiz shu kino o'skirni oldi https://asilmedia.net/10518-parazit-uzbek-tilida-oz...ino-2019-hd.html
https://alltor.me/viewtopic.php?t=159090

Mavzu yaratish 13-Fev-2020 11:06 (8 daqiqa o‘tgach)

Iqitibos

Profil ShX

Ahmadullo ®

Jins:
Yigit
Staj:
8 oy 14 kun
Xabarlar:
73
Taqiq:

Gr@nd, cinerama.pro ga kiring,quyganman HD sini,relizga quygani vaqt bulmayapti turisi,lekin 1-2kun ichida quyaman buyerga ham

Mavzu yaratish 13-Fev-2020 13:25 (2 soat 18 daqiqa o‘tgach)

Iqitibos

Profil ShX

duphaston_10

Jins:
Ko‘rsatilmagan
Staj:
1 yil 9 oy
Xabarlar:
6
Taqiq:

яхшила ип манни 1080 бор канакиб сайтга ташаса булади. узбеча таржимасини кушиб куёласлами

Mavzu yaratish 13-Fev-2020 15:19 (1 soat 54 daqiqa o‘tgach)

Iqitibos

Profil ShX

Ahmadullo ®

Jins:
Yigit
Staj:
8 oy 14 kun
Xabarlar:
73
Taqiq:

duphaston_10, shuni 1080 mandaham bor,HDrip lekin,sizdagi subtitrsiz yaxshisi bo'lsa unda quyish kerak,

Mavzu yaratish 13-Fev-2020 16:26 (1 soat 7 daqiqa o‘tgach)

Iqitibos

Profil ShX

DIYOR 07 57

Jins:
Ko‘rsatilmagan
Staj:
5 oy 1 kun
Xabarlar:
2
Taqiq:

Ip Men 4 / Ип Ман 4 / Yip Man 4 (Vuilson Ip) [2019, Jangari, biografiya, HC, HDRip 720p] O'zbek va xitoy tilida

Mavzu yaratish 13-Fev-2020 16:55 (28 daqiqa o‘tgach)

Iqitibos

Profil ShX

Soft-Release

Jins:
Yigit
Staj:
2 yil 3 oy
Xabarlar:
857

Qayerdan: Kattakurgan

Taqiq:

8976
Ip Men 4 / Ип Ман 4 / Yip Man 4 (Vuilson Ip) [2019, Jangari, biografiya, HC, HDRip 720p] O'zbek va xitoy tilida
DIYOR 07 57, Kor Sub Bor Bunda Ham Sifati Unchalik Emas

Mavzu yaratish 14-Fev-2020 17:26 (1 kun o‘tgach)

Iqitibos

Profil ShX

ZAFAR-studio

Jins:
Yigit
Staj:
2 yil
Xabarlar:
65

Qayerdan: Хоразм вилояти, Урганч шаҳри, "12-сонли Маъшал" маҳалласидан

Taqiq:

Ahmadullo, Ассалому алайкум. Сизнинг мархаматингиз билан кинони мазза қилиб томоша қилдим, бунинг учун катта рахмат.....чарчаманг, ишларингизга омад, агарда иложи бўлса 1920 * 1080 релиз қилсангиз жуда хурсан бўлардим....

Mavzu yaratish 16-Fev-2020 18:40 (2 kun 1 soat o‘tgach)

Iqitibos

Profil ShX

N.U.R.I.K.B.E.K

Jins:
Yigit
Staj:
2 yil 8 oy
Xabarlar:
590

Qayerdan: Jizzax. Paxtakor

Taqiq:

ZAFAR-studio, xali norm varyanti chiqmadi

Mavzu yaratish 16-Fev-2020 19:01 (20 daqiqa o‘tgach)

Iqitibos

Profil ShX

Ahmadullo ®

Jins:
Yigit
Staj:
8 oy 14 kun
Xabarlar:
73
Taqiq:

ZAFAR-studio, rahmat aka ) chiqishi bilan albatta reliz qilamiz nasib qilsa

Mavzu yaratish 17-Fev-2020 15:23 (20 soat o‘tgach)

Iqitibos

Profil ShX

ZAFAR-studio

Jins:
Yigit
Staj:
2 yil
Xabarlar:
65

Qayerdan: Хоразм вилояти, Урганч шаҳри, "12-сонли Маъшал" маҳалласидан

Taqiq:

Ahmadullo, кутаман......

Mavzu yaratish 18-Fev-2020 23:20 (1 kun 7 soat o‘tgach)

Iqitibos

Profil ShX

Ahmadullo ®

Jins:
Yigit
Staj:
8 oy 14 kun
Xabarlar:
73
Taqiq:

ZAFAR-studio, ))

Mavzu yaratish 19-Fev-2020 18:59 (19 soat o‘tgach)

Iqitibos

Profil ShX

Soft-Release

Jins:
Yigit
Staj:
2 yil 3 oy
Xabarlar:
857

Qayerdan: Kattakurgan

Taqiq:

9002Ahmadullo, кутаман......
ZAFAR-studio, Hammasida Kor Sub Bor Kutish Kerak Hozircha Masalan iTunes Variantini Yoki Dub On-KT Versiyalarida Kor Sub Bo'lmaydi Toza RIP Bo'ladi O'shanda 1080p Siga Dorojka Qo'shib Reliz Qilsa Bo'ladi

Mavzu yaratish 19-Fev-2020 20:13 (1 soat 13 daqiqa o‘tgach)

Iqitibos

Profil ShX
Xabarlarni ko‘rsatish:    

Hozirgi vaqt: 07-Iyul 05:05

Vaqtlar farqi: UTC + 5



Siz mavzu yaratishingiz mumkin emas
Siz xabarlarga javob qaytarishingiz mumkin emas
Siz o‘z xabarlaringizni tahrirlashingiz mumkin emas
Siz o‘z xabarlaringizni o‘chirishingiz mumkin emas
Siz so‘rovlarda ovoz berishingiz mumkin emas
Siz xabalarga fayllarni biriktirishingiz mumkin emas
Siz fayllarni ko‘chirishingiz mumkin emas