˂
˃
Tarqatmalar statistikasi
Ko‘chirmoqdaman: [ 4 ]
Ko‘chirib bo‘ldim: [ 19 ]
 
     
 
 

N.U.R.I.K.B.E.K ®

Jins:
Yigit
Staj:
2 yil 8 oy
Xabarlar:
590

Qayerdan: Jizzax. Paxtakor

Taqiq:

-21 Ko'prik | 21 мост | 21 Bridges
--Chiqqan yili: 2019
Davlat: AQSH
Janr: Jangari, Triller, Drama,Jinoyat.
Davomiyligi: 01:39:57
Tarjima: Professional SevimliTv O'zbek Tilida.--Rejissyor: Brayan Kirk.--Rollarda: Chadvik Bouzman, Sienna Miller, Teylor Kitsch, J.K. Simmons, Stefan Jeyms, Keyt Devid, Aleksandr Siddig, Lui Kanselmi, Viktoriya Kartagena, Gari Karr.--Tavsif: U Manxettenda Jasur talonchilikni sodir etgan 8dan ortiq o'lik militsionerlarni o'ldirgan jinoyatchilarni ovlaydi va keyin tark etadi.
Shu bilan birga, buzilgan politsiyachilar uni almashtirishga harakat qilishadi. Ammo jinoyatchilar qochib ketishmaydi, chunki Nyu-York tarixida birinchi marta politsiya orolning barcha chiqishlarini, shu jumladan 21 ko'prigini to'sib qo'ydi.--Videoning sifati: BDRip 1080p HEVC
Video format: MKV--Video: H265 1920x808 23.976fps 1 776 kb/s
Audio: MP3 48000Hz stereo 128kbps O'zbek Tili--

Media Info

General
Format : Matroska
Format version : Version 4 / Version 2
File size : 1.33 GiB
Duration : 1 h 39 min
Overall bit rate : 1 906 kb/s
Movie name : PSArips.com | 21.Bridges.2019.1080p.BrRip.6CH.x265.HEVC-PSA
Encoded date : UTC 2020-02-11 07:31:58
Writing application : mkvmerge v15.0.0 ('Duel with the Devil') 64-bit
Writing library : libebml v1.3.5 + libmatroska v1.4.5
Video
ID : 1
Format : HEVC
Format/Info : High Efficiency Video Coding
Format profile : Main@L4@Main
Codec ID : V_MPEGH/ISO/HEVC
Duration : 1 h 39 min
Bit rate : 1 776 kb/s
Width : 1 920 pixels
Height : 808 pixels
Display aspect ratio : 2.40:1
Frame rate mode : Constant
Frame rate : 23.976 (24000/1001) FPS
Color space : YUV
Chroma subsampling : 4:2:0
Bit depth : 8 bits
Bits/(Pixel*Frame) : 0.048
Stream size : 1.24 GiB (93%)
Default : Yes
Forced : No
Audio
ID : 2
Format : MPEG Audio
Format version : Version 1
Format profile : Layer 3
Mode : Joint stereo
Codec ID : A_MPEG/L3
Codec ID/Hint : MP3
Duration : 1 h 39 min
Bit rate mode : Constant
Bit rate : 128 kb/s
Channel(s) : 2 channels
Sampling rate : 48.0 kHz
Frame rate : 41.667 FPS (1152 SPF)
Compression mode : Lossy
Stream size : 91.5 MiB (7%)
Title : O'zbek Tili
Writing library : LAME3.99.5
Language : Uzbek
Default : Yes
Forced : Yes
LAVHALAR
Profil ShX

Lock

Jins:
Yigit
Staj:
1 yil 9 oy
Xabarlar:
73

Qayerdan: Namangan

Taqiq:

Nurikbek ozgina surilib qolibdiku ovoz, sizdan kutmagandim, shoshilib ishlabsiza, mayli shungayam rahmat

Mavzu yaratish 12-Fev-2020 18:41 (1 kun 5 soat o‘tgach)

Iqitibos

Profil ShX

N.U.R.I.K.B.E.K ®

Jins:
Yigit
Staj:
2 yil 8 oy
Xabarlar:
590

Qayerdan: Jizzax. Paxtakor

Taqiq:

Lock, tekshirganimda undaymasdi boshqa playerda ko'rinchi

Mavzu yaratish 12-Fev-2020 19:30 (48 daqiqa o‘tgach)

Iqitibos

Profil ShX

N.U.R.I.K.B.E.K ®

Jins:
Yigit
Staj:
2 yil 8 oy
Xabarlar:
590

Qayerdan: Jizzax. Paxtakor

Taqiq:

Lock, yaxshi tushkanku

Mavzu yaratish 12-Fev-2020 20:57 (1 soat 27 daqiqa o‘tgach)

Iqitibos

Profil ShX

Lock

Jins:
Yigit
Staj:
1 yil 9 oy
Xabarlar:
73

Qayerdan: Namangan

Taqiq:

N.U.R.I.K.B.E.K, O'rtalarida jijja siljish sezildi, tvda ham shunday bo'ldi, jaa katta ahamiyat beradigan emas lekin

Mavzu yaratish 14-Fev-2020 10:12 (1 kun 13 soat o‘tgach)

Iqitibos

Profil ShX

Lock

Jins:
Yigit
Staj:
1 yil 9 oy
Xabarlar:
73

Qayerdan: Namangan

Taqiq:

Uzr lekin juda mayda detalgacha e'tibor bervoramanda

Mavzu yaratish 14-Fev-2020 10:12 (51 soniya o‘tgach)

Iqitibos

Profil ShX
Xabarlarni ko‘rsatish:    

Hozirgi vaqt: 15-Iyul 12:15

Vaqtlar farqi: UTC + 5



Siz mavzu yaratishingiz mumkin emas
Siz xabarlarga javob qaytarishingiz mumkin emas
Siz o‘z xabarlaringizni tahrirlashingiz mumkin emas
Siz o‘z xabarlaringizni o‘chirishingiz mumkin emas
Siz so‘rovlarda ovoz berishingiz mumkin emas
Siz xabalarga fayllarni biriktirishingiz mumkin emas
Siz fayllarni ko‘chirishingiz mumkin emas